  0
SECTION
  2
HEADER
  9
$ACADVER
  1
AC1027
  9
$ACADMAINTVER
 70
     8
  9
$DWGCODEPAGE
  3
ANSI_1252
  9
$LASTSAVEDBY
  1
chris yuravich
  9
$REQUIREDVERSIONS
160
                 0
  9
$INSBASE
 10
0.0
 20
0.0
 30
0.0
  9
$EXTMIN
 10
877.122886462515
 20
46.74803567986403
 30
0.0
  9
$EXTMAX
 10
885.6228864625151
 20
57.74803567986404
 30
0.0
  9
$LIMMIN
 10
0.0
 20
0.0
  9
$LIMMAX
 10
12.0
 20
9.0
  9
$ORTHOMODE
 70
     0
  9
$REGENMODE
 70
     1
  9
$FILLMODE
 70
     1
  9
$QTEXTMODE
 70
     0
  9
$MIRRTEXT
 70
     0
  9
$LTSCALE
 40
1.0
  9
$ATTMODE
 70
     1
  9
$TEXTSIZE
 40
0.15
  9
$TRACEWID
 40
0.05
  9
$TEXTSTYLE
  7
FABW8
  9
$CLAYER
  8
0
  9
$CELTYPE
  6
ByLayer
  9
$CECOLOR
 62
   256
  9
$CELTSCALE
 40
1.0
  9
$DISPSILH
 70
     1
  9
$DIMSCALE
 40
1.0
  9
$DIMASZ
 40
0.18
  9
$DIMEXO
 40
0.0625
  9
$DIMDLI
 40
0.38
  9
$DIMRND
 40
0.0
  9
$DIMDLE
 40
0.0
  9
$DIMEXE
 40
0.18
  9
$DIMTP
 40
0.0
  9
$DIMTM
 40
0.0
  9
$DIMTXT
 40
0.18
  9
$DIMCEN
 40
0.09
  9
$DIMTSZ
 40
0.0
  9
$DIMTOL
 70
     0
  9
$DIMLIM
 70
     0
  9
$DIMTIH
 70
     1
  9
$DIMTOH
 70
     1
  9
$DIMSE1
 70
     0
  9
$DIMSE2
 70
     0
  9
$DIMTAD
 70
     0
  9
$DIMZIN
 70
     0
  9
$DIMBLK
  1

  9
$DIMASO
 70
     1
  9
$DIMSHO
 70
     1
  9
$DIMPOST
  1

  9
$DIMAPOST
  1

  9
$DIMALT
 70
     0
  9
$DIMALTD
 70
     2
  9
$DIMALTF
 40
25.4
  9
$DIMLFAC
 40
1.0
  9
$DIMTOFL
 70
     0
  9
$DIMTVP
 40
0.0
  9
$DIMTIX
 70
     0
  9
$DIMSOXD
 70
     0
  9
$DIMSAH
 70
     0
  9
$DIMBLK1
  1

  9
$DIMBLK2
  1

  9
$DIMSTYLE
  2
Standard
  9
$DIMCLRD
 70
     0
  9
$DIMCLRE
 70
     0
  9
$DIMCLRT
 70
     0
  9
$DIMTFAC
 40
1.0
  9
$DIMGAP
 40
0.09
  9
$DIMJUST
 70
     0
  9
$DIMSD1
 70
     0
  9
$DIMSD2
 70
     0
  9
$DIMTOLJ
 70
     1
  9
$DIMTZIN
 70
     0
  9
$DIMALTZ
 70
     0
  9
$DIMALTTZ
 70
     0
  9
$DIMUPT
 70
     0
  9
$DIMDEC
 70
     4
  9
$DIMTDEC
 70
     4
  9
$DIMALTU
 70
     2
  9
$DIMALTTD
 70
     2
  9
$DIMTXSTY
  7
Standard
  9
$DIMAUNIT
 70
     0
  9
$DIMADEC
 70
     0
  9
$DIMALTRND
 40
0.0
  9
$DIMAZIN
 70
     0
  9
$DIMDSEP
 70
    46
  9
$DIMATFIT
 70
     3
  9
$DIMFRAC
 70
     0
  9
$DIMLDRBLK
  1

  9
$DIMLUNIT
 70
     4
  9
$DIMLWD
 70
    -2
  9
$DIMLWE
 70
    -2
  9
$DIMTMOVE
 70
     0
  9
$DIMFXL
 40
1.0
  9
$DIMFXLON
 70
     0
  9
$DIMJOGANG
 40
0.7853981633974483
  9
$DIMTFILL
 70
     0
  9
$DIMTFILLCLR
 70
     0
  9
$DIMARCSYM
 70
     1
  9
$DIMLTYPE
  6
ByBlock
  9
$DIMLTEX1
  6
ByBlock
  9
$DIMLTEX2
  6
ByBlock
  9
$DIMTXTDIRECTION
 70
     0
  9
$LUNITS
 70
     4
  9
$LUPREC
 70
     4
  9
$SKETCHINC
 40
0.1
  9
$FILLETRAD
 40
0.0
  9
$AUNITS
 70
     0
  9
$AUPREC
 70
     0
  9
$MENU
  1
.
  9
$ELEVATION
 40
0.0
  9
$PELEVATION
 40
0.0
  9
$THICKNESS
 40
0.0
  9
$LIMCHECK
 70
     0
  9
$CHAMFERA
 40
0.5
  9
$CHAMFERB
 40
0.5
  9
$CHAMFERC
 40
1.0
  9
$CHAMFERD
 40
0.0
  9
$SKPOLY
 70
     0
  9
$TDCREATE
 40
2454117.700779259
  9
$TDUCREATE
 40
2454117.867445926
  9
$TDUPDATE
 40
2458416.394201886
  9
$TDUUPDATE
 40
2458416.560868553
  9
$TDINDWG
 40
5.7528614005
  9
$TDUSRTIMER
 40
5.7528614005
  9
$USRTIMER
 70
     1
  9
$ANGBASE
 50
0.0
  9
$ANGDIR
 70
     0
  9
$PDMODE
 70
     0
  9
$PDSIZE
 40
0.0
  9
$PLINEWID
 40
0.0
  9
$SPLFRAME
 70
     0
  9
$SPLINETYPE
 70
     6
  9
$SPLINESEGS
 70
     8
  9
$HANDSEED
  5
1A088
  9
$SURFTAB1
 70
     6
  9
$SURFTAB2
 70
     6
  9
$SURFTYPE
 70
     6
  9
$SURFU
 70
     6
  9
$SURFV
 70
     6
  9
$UCSBASE
  2

  9
$UCSNAME
  2

  9
$UCSORG
 10
0.0
 20
0.0
 30
0.0
  9
$UCSXDIR
 10
1.0
 20
0.0
 30
0.0
  9
$UCSYDIR
 10
0.0
 20
1.0
 30
0.0
  9
$UCSORTHOREF
  2

  9
$UCSORTHOVIEW
 70
     0
  9
$UCSORGTOP
 10
0.0
 20
0.0
 30
0.0
  9
$UCSORGBOTTOM
 10
0.0
 20
0.0
 30
0.0
  9
$UCSORGLEFT
 10
0.0
 20
0.0
 30
0.0
  9
$UCSORGRIGHT
 10
0.0
 20
0.0
 30
0.0
  9
$UCSORGFRONT
 10
0.0
 20
0.0
 30
0.0
  9
$UCSORGBACK
 10
0.0
 20
0.0
 30
0.0
  9
$PUCSBASE
  2

  9
$PUCSNAME
  2

  9
$PUCSORG
 10
0.0
 20
0.0
 30
0.0
  9
$PUCSXDIR
 10
1.0
 20
0.0
 30
0.0
  9
$PUCSYDIR
 10
0.0
 20
1.0
 30
0.0
  9
$PUCSORTHOREF
  2

  9
$PUCSORTHOVIEW
 70
     0
  9
$PUCSORGTOP
 10
0.0
 20
0.0
 30
0.0
  9
$PUCSORGBOTTOM
 10
0.0
 20
0.0
 30
0.0
  9
$PUCSORGLEFT
 10
0.0
 20
0.0
 30
0.0
  9
$PUCSORGRIGHT
 10
0.0
 20
0.0
 30
0.0
  9
$PUCSORGFRONT
 10
0.0
 20
0.0
 30
0.0
  9
$PUCSORGBACK
 10
0.0
 20
0.0
 30
0.0
  9
$USERI1
 70
     0
  9
$USERI2
 70
     0
  9
$USERI3
 70
     0
  9
$USERI4
 70
     0
  9
$USERI5
 70
     0
  9
$USERR1
 40
0.0
  9
$USERR2
 40
0.0
  9
$USERR3
 40
0.0
  9
$USERR4
 40
0.0
  9
$USERR5
 40
0.0
  9
$WORLDVIEW
 70
     1
  9
$SHADEDGE
 70
     3
  9
$SHADEDIF
 70
    70
  9
$TILEMODE
 70
     1
  9
$MAXACTVP
 70
    64
  9
$PINSBASE
 10
0.0
 20
0.0
 30
0.0
  9
$PLIMCHECK
 70
     0
  9
$PEXTMIN
 10
-0.3345686127918057
 20
-0.4894379416570516
 30
-0.0015258207003583
  9
$PEXTMAX
 10
8.095912701654384
 20
10.48689543670056
 30
0.0000000349246037
  9
$PLIMMIN
 10
-0.3699766541446425
 20
-0.5042084747754514
  9
$PLIMMAX
 10
8.130023706299192
 20
10.49579128492866
  9
$UNITMODE
 70
     0
  9
$VISRETAIN
 70
     1
  9
$PLINEGEN
 70
     0
  9
$PSLTSCALE
 70
     1
  9
$TREEDEPTH
 70
  3020
  9
$CMLSTYLE
  2
Standard
  9
$CMLJUST
 70
     0
  9
$CMLSCALE
 40
1.0
  9
$PROXYGRAPHICS
 70
     1
  9
$MEASUREMENT
 70
     0
  9
$CELWEIGHT
370
    -1
  9
$ENDCAPS
280
     0
  9
$JOINSTYLE
280
     0
  9
$LWDISPLAY
290
     0
  9
$INSUNITS
 70
     1
  9
$HYPERLINKBASE
  1

  9
$STYLESHEET
  1

  9
$XEDIT
290
     1
  9
$CEPSNTYPE
380
     0
  9
$PSTYLEMODE
290
     1
  9
$FINGERPRINTGUID
  2
{FDEAD576-A652-11D2-9A35-0060089B3A3F}
  9
$VERSIONGUID
  2
{B11090AB-3141-4794-B773-62FCAF124C70}
  9
$EXTNAMES
290
     1
  9
$PSVPSCALE
 40
0.0
  9
$OLESTARTUP
290
     0
  9
$SORTENTS
280
    33
  9
$INDEXCTL
280
     0
  9
$HIDETEXT
280
     1
  9
$XCLIPFRAME
280
     2
  9
$HALOGAP
280
     0
  9
$OBSCOLOR
 70
   257
  9
$OBSLTYPE
280
     0
  9
$INTERSECTIONDISPLAY
280
     0
  9
$INTERSECTIONCOLOR
 70
   257
  9
$DIMASSOC
280
     1
  9
$PROJECTNAME
  1

  9
$CAMERADISPLAY
290
     0
  9
$LENSLENGTH
 40
50.0
  9
$CAMERAHEIGHT
 40
0.0
  9
$STEPSPERSEC
 40
2.0
  9
$STEPSIZE
 40
6.0
  9
$3DDWFPREC
 40
2.0
  9
$PSOLWIDTH
 40
0.25
  9
$PSOLHEIGHT
 40
4.0
  9
$LOFTANG1
 40
1.570796326794896
  9
$LOFTANG2
 40
1.570796326794896
  9
$LOFTMAG1
 40
0.0
  9
$LOFTMAG2
 40
0.0
  9
$LOFTPARAM
 70
     7
  9
$LOFTNORMALS
280
     1
  9
$LATITUDE
 40
37.795
  9
$LONGITUDE
 40
-122.394
  9
$NORTHDIRECTION
 40
0.0
  9
$TIMEZONE
 70
 -8000
  9
$LIGHTGLYPHDISPLAY
280
     1
  9
$TILEMODELIGHTSYNCH
280
     1
  9
$CMATERIAL
347
18B89
  9
$SOLIDHIST
280
     1
  9
$SHOWHIST
280
     1
  9
$DWFFRAME
280
     2
  9
$DGNFRAME
280
     0
  9
$REALWORLDSCALE
290
     1
  9
$INTERFERECOLOR
 62
     1
  9
$INTERFEREOBJVS
345
18BAB
  9
$INTERFEREVPVS
346
18BA8
  9
$CSHADOW
280
     0
  9
$SHADOWPLANELOCATION
 40
0.0
  0
ENDSEC
  0
SECTION
  2
CLASSES
  0
CLASS
  1
ACDBDICTIONARYWDFLT
  2
AcDbDictionaryWithDefault
  3
ObjectDBX Classes
 90
        0
 91
        1
280
     0
281
     0
  0
CLASS
  1
DICTIONARYVAR
  2
AcDbDictionaryVar
  3
ObjectDBX Classes
 90
        0
 91
       17
280
     0
281
     0
  0
CLASS
  1
MATERIAL
  2
AcDbMaterial
  3
ObjectDBX Classes
 90
     1153
 91
        3
280
     0
281
     0
  0
CLASS
  1
VISUALSTYLE
  2
AcDbVisualStyle
  3
ObjectDBX Classes
 90
     4095
 91
       24
280
     0
281
     0
  0
CLASS
  1
TABLESTYLE
  2
AcDbTableStyle
  3
ObjectDBX Classes
 90
     4095
 91
        1
280
     0
281
     0
  0
CLASS
  1
SCALE
  2
AcDbScale
  3
ObjectDBX Classes
 90
     1153
 91
       17
280
     0
281
     0
  0
CLASS
  1
MLEADERSTYLE
  2
AcDbMLeaderStyle
  3
ACDB_MLEADERSTYLE_CLASS
 90
     4095
 91
        1
280
     0
281
     0
  0
CLASS
  1
AEC_REFEDIT_STATUS_TRACKER
  2
AecDbRefEditStatusTracker
  3
AecArchBase70|Product Desc: Autodesk Architectural Desktop 2007 |Company: Autodesk,Inc. |WEB Address: www.autodesk.com
 90
      129
 91
        0
280
     0
281
     0
  0
CLASS
  1
NPOCOLLECTION
  2
AcDbImpNonPersistentObjectsCollection
  3
ObjectDBX Classes
 90
     1153
 91
        1
280
     0
281
     0
  0
CLASS
  1
SORTENTSTABLE
  2
AcDbSortentsTable
  3
ObjectDBX Classes
 90
        0
 91
        3
280
     0
281
     0
  0
CLASS
  1
ACDBSECTIONVIEWSTYLE
  2
AcDbSectionViewStyle
  3
ObjectDBX Classes
 90
     1025
 91
        2
280
     0
281
     0
  0
CLASS
  1
ACDBDETAILVIEWSTYLE
  2
AcDbDetailViewStyle
  3
ObjectDBX Classes
 90
     1025
 91
        2
280
     0
281
     0
  0
CLASS
  1
ACME_DOCUMENT
  2
AcMeDbDoc
  3
AcMeServices
 90
     1024
 91
        1
280
     0
281
     0
  0
CLASS
  1
AMGSETTINGSOBJ
  2
AmgSettingsObj
  3
"AcadM|Product Description: AutoCAD Mechanical|Company: Autodesk, Inc."
 90
     1024
 91
        2
280
     0
281
     0
  0
CLASS
  1
ACMESCOPE
  2
AcMeScope
  3
AcMeServices
 90
     1024
 91
        1
280
     0
281
     0
  0
CLASS
  1
ACMECOMMANDHISTORY
  2
AcMeCommandHistory
  3
AcMeServices
 90
     1024
 91
        1
280
     0
281
     0
  0
CLASS
  1
ACIMSYSVARMAN
  2
AcImSysVarManager
  3
AcMeServices
 90
     1024
 91
        3
280
     0
281
     0
  0
CLASS
  1
ACIMINTSYSVAR
  2
AcImIntSysVar
  3
AcMeServices
 90
     1024
 91
        2
280
     0
281
     0
  0
CLASS
  1
ACMESTATEMGR
  2
AcMeStateMgr
  3
AcMeServices
 90
     1024
 91
        1
280
     0
281
     0
  0
CLASS
  1
ACDBENTITYCACHE
  2
AcMeEntityCache
  3
AcMeServices
 90
     1024
 91
        1
280
     0
281
     0
  0
CLASS
  1
ACGREFMASTER
  2
AcGrefMaster
  3
AcAttribServices
 90
     1024
 91
        1
280
     0
281
     0
  0
CLASS
  1
ACME_DATABASE
  2
AcMeDbDatabase
  3
AcMeServices
 90
     1024
 91
        2
280
     0
281
     0
  0
CLASS
  1
ACRFINSADJUSTERMGR
  2
AcRfInsAdjusterMgr
  3
AcMeServices
 90
     1024
 91
        1
280
     0
281
     0
  0
CLASS
  1
ACGREFACADMASTER
  2
AcGrefacadMaster
  3
AcGrefServices
 90
     1024
 91
        1
280
     0
281
     0
  0
CLASS
  1
AMDTMENUSTATEMGR
  2
AmdtMenuStateMgr
  3
McadcomServices
 90
     1024
 91
        1
280
     0
281
     0
  0
CLASS
  1
AMDTMCOMMENUSTATE
  2
AmdtMcomMenuState
  3
McadcomServices
 90
     1024
 91
        1
280
     0
281
     0
  0
CLASS
  1
AMIMASTER
  2
AmiMaster
  3
AmiServices
 90
     1024
 91
        1
280
     0
281
     0
  0
CLASS
  1
MAPIAMMOUDLE
  2
MApiAmModule
  3
MApiAmServices
 90
     1024
 91
        1
280
     0
281
     0
  0
CLASS
  1
ACIMSTRSYSVAR
  2
AcImStrSysVar
  3
AcMeServices
 90
     1024
 91
        5
280
     0
281
     0
  0
CLASS
  1
AMDTAMMENUSTATE
  2
AmdtAmMenuState
  3
DesignerAssemblies
 90
     1024
 91
        1
280
     0
281
     0
  0
CLASS
  1
ACAMPROJECT
  2
AcAmProject
  3
DesignerAssemblies
 90
     1024
 91
        1
280
     0
281
     0
  0
CLASS
  1
ACAMGRCOMPDEF
  2
AcAmGrCompDef
  3
DesignerAssemblies
 90
     1024
 91
        1
280
     0
281
     0
  0
CLASS
  1
ACAMCOMPDEF
  2
AcAmCompDef
  3
DesignerAssemblies
 90
     1024
 91
        1
280
     0
281
     0
  0
CLASS
  1
ACAMCOMPDEFMGR
  2
AcAmCompDefMgr
  3
DesignerAssemblies
 90
     1024
 91
        1
280
     0
281
     0
  0
CLASS
  1
AMCONTEXTMGR
  2
AcAmContextMgr
  3
DesignerAssemblies
 90
     1024
 91
        1
280
     0
281
     0
  0
CLASS
  1
ACAMCONTEXTMODELER
  2
AcAmContextModeler
  3
DesignerAssemblies
 90
     1024
 91
        1
280
     0
281
     0
  0
CLASS
  1
ACMDATADICTIONARY
  2
AcmDataDictionary
  3
"AcmSymBB|Product Description: AutoCAD Mechanical|Company: Autodesk, Inc."
 90
     1024
 91
        1
280
     0
281
     0
  0
CLASS
  1
ACAMGRCOMPDEFSET
  2
AcAmGrCompDefSet
  3
DesignerAssemblies
 90
     1024
 91
        1
280
     0
281
     0
  0
CLASS
  1
AMDTBROWSERDBTAB
  2
AmdtBrowserDbTab
  3
McadcomServices
 90
     1024
 91
        1
280
     0
281
     0
  0
CLASS
  1
CBROWSERAPPOBJECT
  2
CBrowserAppObject
  3
McadcomServices
 90
     1024
 91
        2
280
     0
281
     0
  0
CLASS
  1
DM_PLACEHOLDER
  2
AcDmSelsetPlaceholder
  3
McadcomServices
 90
     1024
 91
        1
280
     0
281
     0
  0
CLASS
  1
ACMSTANDARDANSI
  2
AcmStandardANSI
  3
"Amdt_StdImp|Product Description: AutoCAD Mechanical|Company: Autodesk, Inc."
 90
     1024
 91
        1
280
     0
281
     0
  0
CLASS
  1
ACMSURFSTANDARDANSI
  2
AcmSurfTextStdANSI
  3
"Amdt_StdImp|Product Description: AutoCAD Mechanical|Company: Autodesk, Inc."
 90
     1024
 91
        1
280
     0
281
     0
  0
CLASS
  1
ACMFCFSTANDARDANSI
  2
AcmFCFStdANSI
  3
"Amdt_StdImp|Product Description: AutoCAD Mechanical|Company: Autodesk, Inc."
 90
     1024
 91
        1
280
     0
281
     0
  0
CLASS
  1
ACMWELDSTANDARDANSI
  2
AcmWeldingStdANSI
  3
"Amdt_StdImp|Product Description: AutoCAD Mechanical|Company: Autodesk, Inc."
 90
     1024
 91
        1
280
     0
281
     0
  0
CLASS
  1
ACMIDSTANDARDANSI
  2
AcmIdStdANSI
  3
"Amdt_StdImp|Product Description: AutoCAD Mechanical|Company: Autodesk, Inc."
 90
     1024
 91
        1
280
     0
281
     0
  0
CLASS
  1
ACMDATUMSTANDARDANSI
  2
AcmDatumStdANSI
  3
"Amdt_StdImp|Product Description: AutoCAD Mechanical|Company: Autodesk, Inc."
 90
     1024
 91
        1
280
     0
281
     0
  0
CLASS
  1
ACMBOMSTANDARDANSI
  2
AcmBOMStdANSI
  3
"Amdt_StdImp|Product Description: AutoCAD Mechanical|Company: Autodesk, Inc."
 90
     1024
 91
        1
280
     0
281
     0
  0
CLASS
  1
ACMDETAILSTANDARDANSI
  2
AmdtDetailSymStdANSI
  3
"Amdt_StdImp|Product Description: AutoCAD Mechanical|Company: Autodesk, Inc."
 90
     1024
 91
        1
280
     0
281
     0
  0
CLASS
  1
ACMSECTIONSTANDARDANSI
  2
AmdtSectionSymStdANSI
  3
"Amdt_StdImp|Product Description: AutoCAD Mechanical|Company: Autodesk, Inc."
 90
     1024
 91
        1
280
     0
281
     0
  0
CLASS
  1
ACMCENTERLINESTANDARDANSI
  2
AmdtCenterLineStdANSI
  3
"Amdt_StdImp|Product Description: AutoCAD Mechanical|Company: Autodesk, Inc."
 90
     1024
 91
        1
280
     0
281
     0
  0
CLASS
  1
ACMTHREADLINESTANDARDANSI
  2
AmdtThreadLineStdANSI
  3
"Amdt_StdImp|Product Description: AutoCAD Mechanical|Company: Autodesk, Inc."
 90
     1024
 91
        1
280
     0
281
     0
  0
CLASS
  1
ACMNOTESTANDARDANSI
  2
AmdtNoteStdANSI
  3
"Amdt_StdImp|Product Description: AutoCAD Mechanical|Company: Autodesk, Inc."
 90
     1024
 91
        1
280
     0
281
     0
  0
CLASS
  1
ACMTAPERSTANDARDANSI
  2
AcmTaperStdANSI
  3
"Amdt_StdImp|Product Description: AutoCAD Mechanical|Company: Autodesk, Inc."
 90
     1024
 91
        1
280
     0
281
     0
  0
CLASS
  1
ACMANOOTATIONVIEWSTANDARDANSI
  2
AmdtAnViewStdANSI
  3
"Amdt_StdImp|Product Description: AutoCAD Mechanical|Company: Autodesk, Inc."
 90
     1024
 91
        1
280
     0
281
     0
  0
CLASS
  1
ACAMGLAYSTD
  2
AcAmgLayStd
  3
"AmgLay|Product Description: AutoCAD Mechanical|Company: Autodesk, Inc."
 90
     1024
 91
        1
280
     0
281
     0
  0
CLASS
  1
ACAMGDIMSTD
  2
AcAmgDimStd
  3
"AmgDim|Product Description: AutoCAD Mechanical|Company: Autodesk, Inc."
 90
     1024
 91
        1
280
     0
281
     0
  0
CLASS
  1
AMGOBJPROPCFG
  2
AmgObjPropCfg
  3
"AmgLay|Product Description: AutoCAD Mechanical|Company: Autodesk, Inc."
 90
     1024
 91
        1
280
     0
281
     0
  0
CLASS
  1
ACAMGHOLECHARTSTDANSI
  2
AcAmgHoleChartStdANSI
  3
AmgDim|Product Description: AutoCAD Mechanical|Company: Autodesk, Inc.
 90
     1024
 91
        1
280
     0
281
     0
  0
CLASS
  1
ACAMGTITLESTD
  2
AcAmgTitleStd
  3
"AmgTitle|Product Description: AutoCAD Mechanical|Company: Autodesk, Inc."
 90
     1024
 91
        1
280
     0
281
     0
  0
CLASS
  1
ACMSECTIONSTANDARDCUSTOM
  2
AmdtSectionSymStdCustom
  3
"Amdt_StdImp|Product Description: AutoCAD Mechanical|Company: Autodesk, Inc."
 90
     1024
 91
        0
280
     0
281
     0
  0
CLASS
  1
ACMDETAILTANDARDCUSTOM
  2
AmdtDetailSymStdCustom
  3
"Amdt_StdImp|Product Description: AutoCAD Mechanical|Company: Autodesk, Inc."
 90
     1024
 91
        0
280
     0
281
     0
  0
CLASS
  1
FIELD
  2
AcDbField
  3
ObjectDBX Classes
 90
     1152
 91
        4
280
     0
281
     0
  0
CLASS
  1
FIELDLIST
  2
AcDbFieldList
  3
ObjectDBX Classes
 90
     1152
 91
        1
280
     0
281
     0
  0
CLASS
  1
AMDTNOTETEMPLATEDB
  2
AmdtNoteTemplateDB
  3
AcmSymBB|Product Description: AutoCAD Mechanical|Company: Autodesk, Inc.
 90
     1024
 91
        7
280
     0
281
     0
  0
CLASS
  1
CELLSTYLEMAP
  2
AcDbCellStyleMap
  3
ObjectDBX Classes
 90
     1152
 91
        3
280
     0
281
     0
  0
CLASS
  1
ACAMGFILTERDAT
  2
AcAmgFilterDat
  3
"AcadM|Product Description: AutoCAD Mechanical|Company: Autodesk, Inc."
 90
     1024
 91
        0
280
     0
281
     0
  0
CLASS
  1
EXACXREFPANELOBJECT
  2
ExAcXREFPanelObject
  3
EXAC_ESW
 90
     1025
 91
        1
280
     0
281
     0
  0
CLASS
  1
IMAGE
  2
AcDbRasterImage
  3
ISM
 90
     2175
 91
        0
280
     0
281
     1
  0
CLASS
  1
IMAGEDEF_REACTOR
  2
AcDbRasterImageDefReactor
  3
ISM
 90
        1
 91
        0
280
     0
281
     0
  0
CLASS
  1
IMAGEDEF
  2
AcDbRasterImageDef
  3
ISM
 90
        0
 91
        1
280
     0
281
     0
  0
CLASS
  1
RASTERVARIABLES
  2
AcDbRasterVariables
  3
ISM
 90
        0
 91
        1
280
     0
281
     0
  0
CLASS
  1
CAMSSTRUCTBTNSTATE
  2
StructBtnState
  3
DesignerAssemblies
 90
     1024
 91
        1
280
     0
281
     0
  0
CLASS
  1
PLOTSETTINGS
  2
AcDbPlotSettings
  3
ObjectDBX Classes
 90
        0
 91
        1
280
     0
281
     0
  0
ENDSEC
  0
SECTION
  2
TABLES
  0
TABLE
  2
VPORT
  5
8
102
{ACAD_XDICTIONARY
360
18F02
102
}
330
0
100
AcDbSymbolTable
 70
     1
  0
VPORT
  5
18B6A
330
8
100
AcDbSymbolTableRecord
100
AcDbViewportTableRecord
  2
*Active
 70
     0
 10
0.0
 20
0.0
 11
1.0
 21
1.0
 12
881.3673796853572
 22
52.24854656511616
 13
0.0
 23
0.0
 14
0.5
 24
0.5
 15
0.5
 25
0.5
 16
0.0
 26
0.0
 36
1.0
 17
0.0
 27
0.0
 37
0.0
 40
11.13908471952269
 41
1.633196721311475
 42
50.0
 43
0.0
 44
0.0
 50
0.0
 51
0.0
 71
     0
 72
  2000
 73
     1
 74
     1
 75
     0
 76
     0
 77
     0
 78
     0
281
     0
 65
     1
110
0.0
120
0.0
130
0.0
111
1.0
121
0.0
131
0.0
112
0.0
122
1.0
132
0.0
 79
     0
146
0.0
348
18BA7
 60
     3
 61
     5
292
     1
282
     1
141
0.0
142
0.0
 63
   250
421
  3355443
1001
ACAD_NAV_VCDISPLAY
1070
     3
  0
ENDTAB
  0
TABLE
  2
LTYPE
  5
5
330
0
100
AcDbSymbolTable
 70
    16
  0
LTYPE
  5
14
330
5
100
AcDbSymbolTableRecord
100
AcDbLinetypeTableRecord
  2
ByBlock
 70
     0
  3

 72
    65
 73
     0
 40
0.0
  0
LTYPE
  5
15
330
5
100
AcDbSymbolTableRecord
100
AcDbLinetypeTableRecord
  2
ByLayer
 70
     0
  3

 72
    65
 73
     0
 40
0.0
  0
LTYPE
  5
16
330
5
100
AcDbSymbolTableRecord
100
AcDbLinetypeTableRecord
  2
Continuous
 70
     0
  3
Solid line
 72
    65
 73
     0
 40
0.0
  0
LTYPE
  5
18CE6
330
5
100
AcDbSymbolTableRecord
100
AcDbLinetypeTableRecord
  2
HIDDEN
 70
     0
  3
Hidden __ __ __ __ __ __ __ __ __ __ __ __ __ _
 72
    65
 73
     2
 40
0.375
 49
0.25
 74
     0
 49
-0.125
 74
     0
  0
LTYPE
  5
18CE7
330
5
100
AcDbSymbolTableRecord
100
AcDbLinetypeTableRecord
  2
PHANTOM2
 70
     0
  3
Phantom (.5x) ___ _ _ ___ _ _ ___ _ _ ___ _ _
 72
    65
 73
     6
 40
1.25
 49
0.625
 74
     0
 49
-0.125
 74
     0
 49
0.125
 74
     0
 49
-0.125
 74
     0
 49
0.125
 74
     0
 49
-0.125
 74
     0
  0
LTYPE
  5
18CE8
330
5
100
AcDbSymbolTableRecord
100
AcDbLinetypeTableRecord
  2
CENTER
 70
     0
  3
Center ____ _ ____ _ ____ _ ____ _ ____ _ ____
 72
    65
 73
     4
 40
2.0
 49
1.25
 74
     0
 49
-0.25
 74
     0
 49
0.25
 74
     0
 49
-0.25
 74
     0
  0
LTYPE
  5
18D22
330
5
100
AcDbSymbolTableRecord
100
AcDbLinetypeTableRecord
  2
CENTER2
 70
     0
  3
Center (.5x) ___ _ ___ _ ___ _ ___ _ ___ _ ___
 72
    65
 73
     4
 40
1.125
 49
0.75
 74
     0
 49
-0.125
 74
     0
 49
0.125
 74
     0
 49
-0.125
 74
     0
  0
LTYPE
  5
18D23
330
5
100
AcDbSymbolTableRecord
100
AcDbLinetypeTableRecord
  2
HIDDEN2
 70
     0
  3
Hidden (.5x) _ _ _ _ _ _ _ _ _ _ _ _ _ _ _ _ _
 72
    65
 73
     2
 40
0.1875
 49
0.125
 74
     0
 49
-0.0625
 74
     0
  0
LTYPE
  5
18D33
330
5
100
AcDbSymbolTableRecord
100
AcDbLinetypeTableRecord
  2
ACANSTGB
 70
     0
  3
__ . . __ . .
 72
    65
 73
     6
 40
0.35433070866
 49
0.15748031496
 74
     0
 49
-0.03937007874
 74
     0
 49
0.03937007874
 74
     0
 49
-0.03937007874
 74
     0
 49
0.03937007874
 74
     0
 49
-0.03937007874
 74
     0
  0
LTYPE
  5
18D34
330
5
100
AcDbSymbolTableRecord
100
AcDbLinetypeTableRecord
  2
ACANSTGL
 70
     0
  3
_ _ _ _ _
 72
    65
 73
     2
 40
0.11811023622
 49
0.07874015748
 74
     0
 49
-0.03937007874
 74
     0
  0
LTYPE
  5
1A01B
330
5
100
AcDbSymbolTableRecord
100
AcDbLinetypeTableRecord
  2
AM_ISO02W050
 70
     0
  3
__ __ __ __ __ __ __ __ __ __ __ __ __ __ __
 72
    65
 73
     2
 40
7.5
 49
6.0
 74
     0
 49
-1.5
 74
     0
  0
LTYPE
  5
1A01C
330
5
100
AcDbSymbolTableRecord
100
AcDbLinetypeTableRecord
  2
AM_ISO08W050
 70
     0
  3
____ . ____ . ____ . ____ . ____ . ____ . ____
 72
    65
 73
     4
 40
18.0
 49
12.0
 74
     0
 49
-1.5
 74
     0
 49
3.0
 74
     0
 49
-1.5
 74
     0
  0
LTYPE
  5
1A01D
330
5
100
AcDbSymbolTableRecord
100
AcDbLinetypeTableRecord
  2
AM_ISO09W050
 70
     0
  3
_____ . . _____ . . _____ . . ____ .. ____
 72
    65
 73
     6
 40
22.5
 49
12.0
 74
     0
 49
-1.5
 74
     0
 49
3.0
 74
     0
 49
-1.5
 74
     0
 49
3.0
 74
     0
 49
-1.5
 74
     0
  0
LTYPE
  5
1A01E
330
5
100
AcDbSymbolTableRecord
100
AcDbLinetypeTableRecord
  2
Amconstr
 70
     0
  3
_______________________
 72
    65
 73
     2
 40
9999.0
 49
9999.0
 74
     0
 49
0.0
 74
     0
  0
LTYPE
  5
1A01F
330
5
100
AcDbSymbolTableRecord
100
AcDbLinetypeTableRecord
  2
AM_ISO08W050x2
 70
     0
  3
__ . __ . __ . __ . __ . __
 72
    65
 73
     4
 40
9.0
 49
6.0
 74
     0
 49
-0.75
 74
     0
 49
1.5
 74
     0
 49
-0.75
 74
     0
  0
LTYPE
  5
1A020
330
5
100
AcDbSymbolTableRecord
100
AcDbLinetypeTableRecord
  2
AM_ISO02W050x2
 70
     0
  3
 _ _ _ _ _ _ _ _ _ _ _ _
 72
    65
 73
     2
 40
3.75
 49
3.0
 74
     0
 49
-0.75
 74
     0
  0
LTYPE
  5
1A023
330
5
100
AcDbSymbolTableRecord
100
AcDbLinetypeTableRecord
  2
Amzigzag
 70
     0
  3
/\/-/\/-/\/-/\/-/\/-/\/
 72
    65
 73
     2
 40
11.0001
 49
0.0001
 74
     4
 75
   136
340
1A022
 46
0.04
 50
0.0
 44
0.0
 45
0.0
 49
-11.0
 74
     0
  0
LTYPE
  5
1A024
330
5
100
AcDbSymbolTableRecord
100
AcDbLinetypeTableRecord
  2
Amzigzag2
 70
     0
  3
/\/-/\/-/\/-/\/-/\/-/\/
 72
    65
 73
     2
 40
0.4401
 49
0.0001
 74
     4
 75
   136
340
1A022
 46
0.0016
 50
0.0
 44
0.0
 45
0.0
 49
-0.4400000000000001
 74
     0
  0
ENDTAB
  0
TABLE
  2
LAYER
  5
2
102
{ACAD_XDICTIONARY
360
EB
102
}
330
0
100
AcDbSymbolTable
 70
     6
  0
LAYER
  5
10
102
{ACAD_XDICTIONARY
360
18CAC
102
}
330
2
100
AcDbSymbolTableRecord
100
AcDbLayerTableRecord
  2
0
 70
     0
 62
     7
  6
Continuous
370
    -3
390
F
347
18B99
348
0
  0
LAYER
  5
100
102
{ACAD_XDICTIONARY
360
18CAE
102
}
330
2
100
AcDbSymbolTableRecord
100
AcDbLayerTableRecord
  2
PERF_FILL
 70
     0
 62
     7
  6
Continuous
370
    -3
390
F
347
18B99
348
0
  0
LAYER
  5
187
102
{ACAD_XDICTIONARY
360
18CB0
102
}
330
2
100
AcDbSymbolTableRecord
100
AcDbLayerTableRecord
  2
sheet-outline
 70
     0
 62
   255
  6
Continuous
290
     0
370
     0
390
F
347
18B99
348
0
  0
LAYER
  5
1310E
330
2
100
AcDbSymbolTableRecord
100
AcDbLayerTableRecord
  2
Defpoints
 70
     0
 62
     7
  6
Continuous
290
     0
370
    -3
390
F
347
18B99
348
0
  0
LAYER
  5
133AC
102
{ACAD_XDICTIONARY
360
18CB4
102
}
330
2
100
AcDbSymbolTableRecord
100
AcDbLayerTableRecord
  2
LAYER_1
 70
     0
 62
   160
  6
Continuous
370
    -3
390
F
347
18B99
348
0
  0
LAYER
  5
19B1D
102
{ACAD_XDICTIONARY
360
19B1E
102
}
330
2
100
AcDbSymbolTableRecord
100
AcDbLayerTableRecord
  2
text
 70
     0
 62
     7
  6
Continuous
370
    -3
390
F
347
18B99
348
0
  0
ENDTAB
  0
TABLE
  2
STYLE
  5
3
330
0
100
AcDbSymbolTable
 70
    10
  0
STYLE
  5
11
330
3
100
AcDbSymbolTableRecord
100
AcDbTextStyleTableRecord
  2
Standard
 70
     0
 40
0.0
 41
1.0
 50
0.0
 71
     0
 42
0.2
  3
txt
  4

  0
STYLE
  5
1E9
330
3
100
AcDbSymbolTableRecord
100
AcDbTextStyleTableRecord
  2
FABW8
 70
     0
 40
0.15
 41
1.0
 50
0.0
 71
     0
 42
0.15
  3
ROMANS.shx
  4

  0
STYLE
  5
133AD
330
3
100
AcDbSymbolTableRecord
100
AcDbTextStyleTableRecord
  2
ZZ-NOTES
 70
     0
 40
2.379999999999999
 41
1.0
 50
0.0
 71
     0
 42
2.379999999999999
  3
ARIALN.TTF
  4

1001
ACAD
1000
Arial Narrow
1071
       34
  0
STYLE
  5
133AE
330
3
100
AcDbSymbolTableRecord
100
AcDbTextStyleTableRecord
  2
ZZ-DETAILTITLE
 70
     0
 40
4.769999999999996
 41
1.0
 50
0.0
 71
     0
 42
4.5
  3
ARIALN.TTF
  4

1001
ACAD
1000
Arial Narrow
1071
       34
  0
STYLE
  5
18D32
330
3
100
AcDbSymbolTableRecord
100
AcDbTextStyleTableRecord
  2
ACANSGDT
 70
     0
 40
0.0
 41
1.0
 50
0.0
 71
     0
 42
0.15
  3
amgdt.shx
  4

  0
STYLE
  5
18E63
330
3
100
AcDbSymbolTableRecord
100
AcDbTextStyleTableRecord
  2
HEND_SD 0.250
 70
     0
 40
0.125
 41
1.0
 50
0.0
 71
     0
 42
1.0
  3
ROMANS.shx
  4

  0
STYLE
  5
19B1F
330
3
100
AcDbSymbolTableRecord
100
AcDbTextStyleTableRecord
  2
HEND_SD 1.00
 70
     0
 40
1.0
 41
1.0
 50
0.0
 71
     0
 42
1.0
  3
ROMANS.shx
  4

  0
STYLE
  5
19D30
330
3
100
AcDbSymbolTableRecord
100
AcDbTextStyleTableRecord
  2
ARIAL-1
 70
     0
 40
0.15
 41
0.8
 50
0.0
 71
     0
 42
0.15
  3
arialbd.ttf
  4

1001
ACAD
1000
Arial
1071
 33554466
  0
STYLE
  5
1A022
330
3
100
AcDbSymbolTableRecord
100
AcDbTextStyleTableRecord
  2

 70
     1
 40
0.0
 41
1.0
 50
0.0
 71
     0
 42
0.15
  3
genltshp.shx
  4

  0
STYLE
  5
1A026
330
3
100
AcDbSymbolTableRecord
100
AcDbTextStyleTableRecord
  2
ACANSTS
 70
     0
 40
1.0
 41
1.0
 50
0.0
 71
     0
 42
0.15
  3
romans.shx
  4

  0
ENDTAB
  0
TABLE
  2
VIEW
  5
6
330
0
100
AcDbSymbolTable
 70
     3
  0
VIEW
  5
1068D
330
6
100
AcDbSymbolTableRecord
100
AcDbViewTableRecord
  2
13sq
 70
     0
 40
3.190078202735653
 10
359.6521906527557
 20
-20.91256265464289
 41
3.190078202735653
 11
0.0
 21
0.0
 31
1.0
 12
0.0
 22
0.0
 32
0.0
 42
50.0
 43
0.0
 44
0.0
 50
0.0
 71
     0
281
     0
 72
     0
 73
     0
348
18BA7
  0
VIEW
  5
108F6
330
6
100
AcDbSymbolTableRecord
100
AcDbViewTableRecord
  2
15sq
 70
     0
 40
48.82301768925436
 10
446.4923038750163
 20
-28.59408323013224
 41
48.82301768925436
 11
0.0
 21
0.0
 31
1.0
 12
0.0
 22
0.0
 32
0.0
 42
50.0
 43
0.0
 44
0.0
 50
0.0
 71
     0
281
     0
 72
     0
 73
     0
348
18BA7
  0
ENDTAB
  0
TABLE
  2
UCS
  5
7
330
0
100
AcDbSymbolTable
 70
     1
  0
UCS
  5
74
330
7
100
AcDbSymbolTableRecord
100
AcDbUCSTableRecord
  2
CDI
 70
     0
 10
0.0
 20
0.0
 30
0.0
 11
1.0
 21
0.0
 31
0.0
 12
0.0
 22
1.0
 32
0.0
 79
     0
146
0.0
  0
ENDTAB
  0
TABLE
  2
APPID
  5
9
330
0
100
AcDbSymbolTable
 70
    44
  0
APPID
  5
12
330
9
100
AcDbSymbolTableRecord
100
AcDbRegAppTableRecord
  2
ACAD
 70
     0
  0
APPID
  5
9E
330
9
100
AcDbSymbolTableRecord
100
AcDbRegAppTableRecord
  2
BEAMTYPE2D
 70
     0
  0
APPID
  5
9F
330
9
100
AcDbSymbolTableRecord
100
AcDbRegAppTableRecord
  2
TOSELEV
 70
     0
  0
APPID
  5
A0
330
9
100
AcDbSymbolTableRecord
100
AcDbRegAppTableRecord
  2
AME_SOL
 70
     0
  0
APPID
  5
A1
330
9
100
AcDbSymbolTableRecord
100
AcDbRegAppTableRecord
  2
ADDINFO
 70
     0
  0
APPID
  5
A2
330
9
100
AcDbSymbolTableRecord
100
AcDbRegAppTableRecord
  2
BEAMTYPE
 70
     0
  0
APPID
  5
A3
330
9
100
AcDbSymbolTableRecord
100
AcDbRegAppTableRecord
  2
FLGTHKNS
 70
     0
  0
APPID
  5
A4
330
9
100
AcDbSymbolTableRecord
100
AcDbRegAppTableRecord
  2
DUCT_DATA
 70
     0
  0
APPID
  5
A5
330
9
100
AcDbSymbolTableRecord
100
AcDbRegAppTableRecord
  2
FIT_INFO
 70
     0
  0
APPID
  5
A6
330
9
100
AcDbSymbolTableRecord
100
AcDbRegAppTableRecord
  2
PIPE_TYPE
 70
     0
  0
APPID
  5
A7
330
9
100
AcDbSymbolTableRecord
100
AcDbRegAppTableRecord
  2
CONTENTBLOCKICON
 70
     0
  0
APPID
  5
A8
330
9
100
AcDbSymbolTableRecord
100
AcDbRegAppTableRecord
  2
RAK
 70
     0
  0
APPID
  5
A9
330
9
100
AcDbSymbolTableRecord
100
AcDbRegAppTableRecord
  2
AcAecLayerStandard
 70
     0
  0
APPID
  5
AA
330
9
100
AcDbSymbolTableRecord
100
AcDbRegAppTableRecord
  2
CDI-STAG
 70
     0
  0
APPID
  5
AB
330
9
100
AcDbSymbolTableRecord
100
AcDbRegAppTableRecord
  2
SADDLE
 70
     0
  0
APPID
  5
AC
330
9
100
AcDbSymbolTableRecord
100
AcDbRegAppTableRecord
  2
FAB_NUM
 70
     0
  0
APPID
  5
AD
330
9
100
AcDbSymbolTableRecord
100
AcDbRegAppTableRecord
  2
FAB_SPEC2
 70
     0
  0
APPID
  5
AE
330
9
100
AcDbSymbolTableRecord
100
AcDbRegAppTableRecord
  2
WELD_FLAG
 70
     0
  0
APPID
  5
AF
330
9
100
AcDbSymbolTableRecord
100
AcDbRegAppTableRecord
  2
FAB_SPEC1
 70
     0
  0
APPID
  5
EE
330
9
100
AcDbSymbolTableRecord
100
AcDbRegAppTableRecord
  2
DCO15
 70
     0
  0
APPID
  5
16DE1
330
9
100
AcDbSymbolTableRecord
100
AcDbRegAppTableRecord
  2
HENDRICK_PERF_PANEL_INFO
 70
     0
  0
APPID
  5
18CDF
330
9
100
AcDbSymbolTableRecord
100
AcDbRegAppTableRecord
  2
MCAD_NO_VIS
 70
     0
  0
APPID
  5
18CE0
330
9
100
AcDbSymbolTableRecord
100
AcDbRegAppTableRecord
  2
ACAD_TEMP_GRAPHIC
 70
     0
  0
APPID
  5
18CED
330
9
100
AcDbSymbolTableRecord
100
AcDbRegAppTableRecord
  2
ACATTRIBSERVICES
 70
     0
  0
APPID
  5
18D05
330
9
100
AcDbSymbolTableRecord
100
AcDbRegAppTableRecord
  2
DESIGNERASSEMBLIES
 70
     0
  0
APPID
  5
18D1F
330
9
100
AcDbSymbolTableRecord
100
AcDbRegAppTableRecord
  2
ACAD_DSTYLE_DIMJAG
 70
     0
  0
APPID
  5
18D20
330
9
100
AcDbSymbolTableRecord
100
AcDbRegAppTableRecord
  2
ACAD_DSTYLE_DIMBREAK
 70
     0
  0
APPID
  5
18D4A
330
9
100
AcDbSymbolTableRecord
100
AcDbRegAppTableRecord
  2
GENIUS_GENSCREG_15
 70
     0
  0
APPID
  5
18D4B
330
9
100
AcDbSymbolTableRecord
100
AcDbRegAppTableRecord
  2
GENIUS_GENODEF_13
 70
     0
  0
APPID
  5
18D4C
330
9
100
AcDbSymbolTableRecord
100
AcDbRegAppTableRecord
  2
GENIUS_GENOBJ-N-SDF_13
 70
     0
  0
APPID
  5
18E65
330
9
100
AcDbSymbolTableRecord
100
AcDbRegAppTableRecord
  2
ACAD_DSTYLE_DIMTALN
 70
     0
  0
APPID
  5
18E66
330
9
100
AcDbSymbolTableRecord
100
AcDbRegAppTableRecord
  2
AcDbDynamicBlockGUID
 70
     0
  0
APPID
  5
18E67
330
9
100
AcDbSymbolTableRecord
100
AcDbRegAppTableRecord
  2
ACAD_NAV_VCDISPLAY
 70
     0
  0
APPID
  5
18E68
330
9
100
AcDbSymbolTableRecord
100
AcDbRegAppTableRecord
  2
ACAD_DSTYLE_DIMINSPECT
 70
     0
  0
APPID
  5
18EB3
330
9
100
AcDbSymbolTableRecord
100
AcDbRegAppTableRecord
  2
ACAD_EXEMPT_FROM_CAD_STANDARDS
 70
     0
  0
APPID
  5
18EB5
330
9
100
AcDbSymbolTableRecord
100
AcDbRegAppTableRecord
  2
GENIUS_GENDTOL_13
 70
     0
  0
APPID
  5
18F40
330
9
100
AcDbSymbolTableRecord
100
AcDbRegAppTableRecord
  2
ACAD_MLEADERVER
 70
     0
  0
APPID
  5
18F45
330
9
100
AcDbSymbolTableRecord
100
AcDbRegAppTableRecord
  2
ACAD_DSTYLE_DIMARC_LENGTH_SYMBOL
 70
     0
  0
APPID
  5
18F46
330
9
100
AcDbSymbolTableRecord
100
AcDbRegAppTableRecord
  2
ACAD_DSTYLE_DIM_LINETYPE
 70
     0
  0
APPID
  5
18F47
330
9
100
AcDbSymbolTableRecord
100
AcDbRegAppTableRecord
  2
ACAD_DSTYLE_DIM_EXT1_LINETYPE
 70
     0
  0
APPID
  5
18F48
330
9
100
AcDbSymbolTableRecord
100
AcDbRegAppTableRecord
  2
ACAD_DSTYLE_DIM_EXT2_LINETYPE
 70
     0
  0
APPID
  5
19B21
330
9
100
AcDbSymbolTableRecord
100
AcDbRegAppTableRecord
  2
ACAD_PSEXT
 70
     0
  0
APPID
  5
19CDB
330
9
100
AcDbSymbolTableRecord
100
AcDbRegAppTableRecord
  2
GradientColor1ACI
 70
     0
  0
APPID
  5
19CDC
330
9
100
AcDbSymbolTableRecord
100
AcDbRegAppTableRecord
  2
GradientColor2ACI
 70
     0
  0
ENDTAB
  0
TABLE
  2
DIMSTYLE
  5
A
330
0
100
AcDbSymbolTable
 70
     9
100
AcDbDimStyleTable
 71
     2
340
27
340
18E64
  0
DIMSTYLE
105
27
330
A
100
AcDbSymbolTableRecord
100
AcDbDimStyleTableRecord
  2
Standard
 70
     0
277
     4
340
11
  0
DIMSTYLE
105
18D1E
102
{ACAD_REACTORS
330
1A009
102
}
330
A
100
AcDbSymbolTableRecord
100
AcDbDimStyleTableRecord
  2
AM_ANSI
 70
     0
  4
mm
 41
0.12
 42
0.05
 43
0.5
 44
0.1
 47
0.1
 48
0.1
 78
     7
 79
     2
 90
     1
140
0.12
141
0.0
146
0.71
147
0.06
176
   256
177
   256
178
     2
274
     4
284
     7
340
11
345
14
346
14
347
14
371
    -1
372
    -1
1001
ACAD_DSTYLE_DIMJAG
1070
   388
1040
1.5
1001
ACAD_DSTYLE_DIMBREAK
1070
   391
1040
0.125
  0
DIMSTYLE
105
18D24
330
A
100
AcDbSymbolTableRecord
100
AcDbDimStyleTableRecord
  2
AM_ANSI$3
 70
     0
  4
mm
 41
0.12
 42
0.05
 43
0.5
 44
0.1
 47
0.1
 48
0.1
 78
     7
 79
     2
 90
     1
140
0.12
141
0.0
146
0.71
147
0.06
176
   256
177
   256
178
     2
274
     4
284
     7
288
     1
289
     0
340
11
345
14
346
14
347
14
371
    -1
372
    -1
1001
ACAD_DSTYLE_DIMBREAK
1070
   391
1040
0.125
1001
ACAD_DSTYLE_DIMJAG
1070
   388
1040
1.5
  0
DIMSTYLE
105
18D25
330
A
100
AcDbSymbolTableRecord
100
AcDbDimStyleTableRecord
  2
AM_ANSI$4
 70
     0
  4
mm
 41
0.12
 42
0.05
 43
0.5
 44
0.1
 47
0.1
 48
0.1
 78
     7
 79
     2
 90
     1
140
0.12
141
0.0
146
0.71
147
0.06
176
   256
177
   256
178
     2
274
     4
284
     7
288
     1
289
     0
340
11
345
14
346
14
347
14
371
    -1
372
    -1
1001
ACAD_DSTYLE_DIMBREAK
1070
   391
1040
0.125
1001
ACAD_DSTYLE_DIMJAG
1070
   388
1040
1.5
  0
DIMSTYLE
105
18D26
330
A
100
AcDbSymbolTableRecord
100
AcDbDimStyleTableRecord
  2
AM_ANSI$7
 70
     0
  4
mm
 41
0.12
 42
0.05
 43
0.5
 44
0.1
 47
0.1
 48
0.1
 78
     7
 79
     2
 90
     1
140
0.12
141
0.0
146
0.71
147
0.06
176
   256
177
   256
178
     2
274
     4
284
     7
340
11
345
14
346
14
347
14
371
    -1
372
    -1
1001
ACAD_DSTYLE_DIMBREAK
1070
   391
1040
0.125
1001
ACAD_DSTYLE_DIMJAG
1070
   388
1040
1.5
  0
DIMSTYLE
105
18D27
330
A
100
AcDbSymbolTableRecord
100
AcDbDimStyleTableRecord
  2
AM_ANSI$SF
 70
     0
  4
mm
 41
0.12
 42
0.05
 43
0.5
 44
0.1
 47
0.1
 48
0.1
 75
     1
 76
     1
 78
     7
 79
     2
 90
     1
140
0.12
141
0.0
146
0.71
147
0.06
176
   256
177
   256
178
     2
274
     4
284
     7
340
11
345
14
346
14
347
14
371
    -1
372
    -1
1001
ACAD_DSTYLE_DIMBREAK
1070
   391
1040
0.125
1001
ACAD_DSTYLE_DIMJAG
1070
   388
1040
1.5
  0
DIMSTYLE
105
18D2C
330
A
100
AcDbSymbolTableRecord
100
AcDbDimStyleTableRecord
  2
AM_ANSI$SH
 70
     0
  4
mm
 41
0.12
 42
0.05
 43
0.5
 44
0.1
 47
0.1
 48
0.1
 75
     1
 76
     1
 78
     7
 79
     2
 90
     1
140
0.12
141
0.0
146
0.71
147
0.06
173
     1
176
   256
177
   256
178
     2
274
     4
284
     7
340
11
343
18D28
345
14
346
14
347
14
371
    -1
372
    -1
1001
ACAD_DSTYLE_DIMBREAK
1070
   391
1040
0.125
1001
ACAD_DSTYLE_DIMJAG
1070
   388
1040
1.5
  0
DIMSTYLE
105
18E64
102
{ACAD_REACTORS
330
18B4E
330
18B5C
330
19B3A
330
19B56
330
19B48
330
19B83
102
}
330
A
100
AcDbSymbolTableRecord
100
AcDbDimStyleTableRecord
  2
HEND_SD 0.250
 70
     0
 41
0.125
 43
0.75
 44
0.0625
 73
     0
 74
     0
140
0.125
147
0.03125
179
     3
271
     3
272
     3
340
18E63
1001
ACAD_DSTYLE_DIMBREAK
1070
   391
1040
0.0625
1001
ACAD_DSTYLE_DIMJAG
1070
   388
1040
1.5
1001
ACAD_DSTYLE_DIMTALN
1070
   392
1070
     0
  0
DIMSTYLE
105
19B20
330
A
100
AcDbSymbolTableRecord
100
AcDbDimStyleTableRecord
  2
HEND_SD 1.000
 70
     0
 41
1.0
 42
1.0
 43
1.0
 44
1.0
 73
     0
 74
     0
140
1.0
179
     3
271
     3
272
     3
340
19B1F
1001
ACAD_DSTYLE_DIMBREAK
1070
   391
1040
0.125
1001
ACAD_DSTYLE_DIMJAG
1070
   388
1040
1.5
1001
ACAD_DSTYLE_DIMTALN
1070
   392
1070
     0
  0
ENDTAB
  0
TABLE
  2
BLOCK_RECORD
  5
1
330
0
100
AcDbSymbolTable
 70
    14
  0
BLOCK_RECORD
  5
1F
102
{ACAD_XDICTIONARY
360
18BEA
102
}
330
1
100
AcDbSymbolTableRecord
100
AcDbBlockTableRecord
  2
*Model_Space
340
22
 70
     0
280
     1
281
     0
  0
BLOCK_RECORD
  5
10216
330
1
100
AcDbSymbolTableRecord
100
AcDbBlockTableRecord
  2
*Paper_Space
340
10240
 70
     0
280
     1
281
     0
  0
BLOCK_RECORD
  5
1339B
330
1
100
AcDbSymbolTableRecord
100
AcDbBlockTableRecord
  2
AI9-BLK5
340
0
102
{BLKREFS
331
13415
102
}
 70
     0
280
     1
281
     0
  0
BLOCK_RECORD
  5
133A9
330
1
100
AcDbSymbolTableRecord
100
AcDbBlockTableRecord
  2
HMC logogrey2
340
0
102
{BLKREFS
331
18BE0
102
}
 70
     0
280
     1
281
     0
  0
BLOCK_RECORD
  5
18B4F
330
1
100
AcDbSymbolTableRecord
100
AcDbBlockTableRecord
  2
*D2
340
0
 70
     0
280
     1
281
     0
  0
BLOCK_RECORD
  5
18B5D
330
1
100
AcDbSymbolTableRecord
100
AcDbBlockTableRecord
  2
*D3
340
0
 70
     0
280
     1
281
     0
  0
BLOCK_RECORD
  5
18D28
330
1
100
AcDbSymbolTableRecord
100
AcDbBlockTableRecord
  2
GENAXEH
340
0
 70
     0
280
     1
281
     0
  0
BLOCK_RECORD
  5
18D36
330
1
100
AcDbSymbolTableRecord
100
AcDbBlockTableRecord
  2
_ACMFILLEDHALF
340
0
 70
     0
280
     1
281
     0
  0
BLOCK_RECORD
  5
19A8A
330
1
100
AcDbSymbolTableRecord
100
AcDbBlockTableRecord
  2
_ACMNONE
340
0
 70
     0
280
     1
281
     0
  0
BLOCK_RECORD
  5
19B3B
330
1
100
AcDbSymbolTableRecord
100
AcDbBlockTableRecord
  2
*D7
340
0
 70
     0
280
     1
281
     0
  0
BLOCK_RECORD
  5
19B49
330
1
100
AcDbSymbolTableRecord
100
AcDbBlockTableRecord
  2
*D8
340
0
 70
     0
280
     1
281
     0
  0
BLOCK_RECORD
  5
19B57
330
1
100
AcDbSymbolTableRecord
100
AcDbBlockTableRecord
  2
*D9
340
0
 70
     0
280
     1
281
     0
  0
BLOCK_RECORD
  5
19B84
330
1
100
AcDbSymbolTableRecord
100
AcDbBlockTableRecord
  2
*D10
340
0
 70
     0
280
     1
281
     0
  0
BLOCK_RECORD
  5
19F99
102
{ACAD_XDICTIONARY
360
19F9F
102
}
330
1
100
AcDbSymbolTableRecord
100
AcDbBlockTableRecord
  2
A$C141600C6
340
0
 70
     1
280
     1
281
     0
  0
ENDTAB
  0
ENDSEC
  0
SECTION
  2
BLOCKS
  0
BLOCK
  5
20
330
1F
100
AcDbEntity
  8
0
100
AcDbBlockBegin
  2
*Model_Space
 70
     0
 10
0.0
 20
0.0
 30
0.0
  3
*Model_Space
  1

  0
ENDBLK
  5
21
330
1F
100
AcDbEntity
  8
0
100
AcDbBlockEnd
  0
BLOCK
  5
1023E
330
10216
100
AcDbEntity
 67
     1
  8
0
100
AcDbBlockBegin
  2
*Paper_Space
 70
     0
 10
0.0
 20
0.0
 30
0.0
  3
*Paper_Space
  1

  0
ENDBLK
  5
1023F
330
10216
100
AcDbEntity
 67
     1
  8
0
100
AcDbBlockEnd
  0
BLOCK
  5
1339C
330
1339B
100
AcDbEntity
  8
LAYER_1
 62
     7
100
AcDbBlockBegin
  2
AI9-BLK5
 70
     0
 10
0.0
 20
0.0
 30
0.0
  3
AI9-BLK5
  1

  0
ENDBLK
  5
1339D
330
1339B
100
AcDbEntity
  8
LAYER_1
100
AcDbBlockEnd
  0
BLOCK
  5
133AA
330
133A9
100
AcDbEntity
  8
0
100
AcDbBlockBegin
  2
HMC logogrey2
 70
     0
 10
0.0
 20
0.0
 30
0.0
  3
HMC logogrey2
  1
C:\Documents and Settings\sue clarke\My Documents\Baublitz info\HMC logogrey2.dwg
  0
ENDBLK
  5
133AB
330
133A9
100
AcDbEntity
  8
0
100
AcDbBlockEnd
  0
BLOCK
  5
18B5A
330
18B4F
100
AcDbEntity
  8
0
100
AcDbBlockBegin
  2
*D2
 70
     1
 10
0.0
 20
0.0
 30
0.0
  3
*D2
  1

  0
LINE
  5
19F67
330
18B4F
100
AcDbEntity
  8
0
 62
     0
440
 16777216
370
    -2
100
AcDbLine
 10
882.5879044360727
 20
55.96521426956592
 30
0.0
 11
882.5879044360727
 21
56.51575765189292
 31
0.0
  0
LINE
  5
19F68
330
18B4F
100
AcDbEntity
  8
0
 62
     0
440
 16777216
370
    -2
100
AcDbLine
 10
882.0879044360728
 20
55.96521426956592
 30
0.0
 11
882.0879044360728
 21
56.51575765189292
 31
0.0
  0
LINE
  5
19F69
330
18B4F
100
AcDbEntity
  8
0
 62
     0
440
 16777216
370
    -2
100
AcDbLine
 10
882.2129044360726
 20
56.45325765189292
 30
0.0
 11
882.462904436073
 21
56.45325765189292
 31
0.0
  0
LINE
  5
19F6A
330
18B4F
100
AcDbEntity
  8
0
 62
     0
440
 16777216
370
    -2
100
AcDbLine
 10
882.5879044360727
 20
56.45325765189292
 30
0.0
 11
882.7608034810934
 21
56.45325765189292
 31
0.0
  0
SOLID
  5
19F6B
330
18B4F
100
AcDbEntity
  8
0
 62
     0
440
 16777216
100
AcDbTrace
 10
882.2129044360726
 20
56.47409098522626
 30
0.0
 11
882.2129044360726
 21
56.43242431855958
 31
0.0
 12
882.0879044360728
 22
56.45325765189292
 32
0.0
 13
882.0879044360728
 23
56.45325765189292
 33
0.0
  0
SOLID
  5
19F6C
330
18B4F
100
AcDbEntity
  8
0
 62
     0
440
 16777216
100
AcDbTrace
 10
882.462904436073
 20
56.47409098522626
 30
0.0
 11
882.462904436073
 21
56.43242431855958
 31
0.0
 12
882.5879044360727
 22
56.45325765189292
 32
0.0
 13
882.5879044360727
 23
56.45325765189292
 33
0.0
  0
MTEXT
  5
19F6D
330
18B4F
100
AcDbEntity
  8
0
 62
     0
440
 16777216
370
    35
100
AcDbMText
 10
882.9941544360726
 20
56.45325765189292
 30
0.0
 40
0.15
 41
0.0
 46
0.0
 71
     5
 72
     1
  1
\A1;0.500
  7
ARIAL-1
 73
     1
 44
1.0
  0
POINT
  5
19F6E
330
18B4F
100
AcDbEntity
  8
Defpoints
 62
     0
440
 16777216
100
AcDbPoint
 10
882.5879044360727
 20
55.90271426956593
 30
0.0
  0
POINT
  5
19F6F
330
18B4F
100
AcDbEntity
  8
Defpoints
 62
     0
440
 16777216
100
AcDbPoint
 10
882.0879044360728
 20
55.90271426956593
 30
0.0
  0
POINT
  5
19F70
330
18B4F
100
AcDbEntity
  8
Defpoints
 62
     0
440
 16777216
100
AcDbPoint
 10
882.0879044360728
 20
56.45325765189292
 30
0.0
  0
ENDBLK
  5
18B5B
330
18B4F
100
AcDbEntity
  8
0
100
AcDbBlockEnd
  0
BLOCK
  5
18B68
330
18B5D
100
AcDbEntity
  8
0
100
AcDbBlockBegin
  2
*D3
 70
     1
 10
0.0
 20
0.0
 30
0.0
  3
*D3
  1

  0
LINE
  5
19F5D
330
18B5D
100
AcDbEntity
  8
0
 62
     0
440
 16777216
370
    -2
100
AcDbLine
 10
880.8379044360727
 20
56.21521426956593
 30
0.0
 11
880.8379044360727
 21
56.51575765189292
 31
0.0
  0
LINE
  5
19F5E
330
18B5D
100
AcDbEntity
  8
0
 62
     0
440
 16777216
370
    -2
100
AcDbLine
 10
880.0879044360726
 20
56.21521426956593
 30
0.0
 11
880.0879044360726
 21
56.51575765189292
 31
0.0
  0
LINE
  5
19F5F
330
18B5D
100
AcDbEntity
  8
0
 62
     0
440
 16777216
370
    -2
100
AcDbLine
 10
880.9629044360727
 20
56.45325765189292
 30
0.0
 11
881.087904436073
 21
56.45325765189292
 31
0.0
  0
LINE
  5
19F60
330
18B5D
100
AcDbEntity
  8
0
 62
     0
440
 16777216
370
    -2
100
AcDbLine
 10
879.9629044360727
 20
56.45325765189292
 30
0.0
 11
879.8379044360727
 21
56.45325765189292
 31
0.0
  0
SOLID
  5
19F61
330
18B5D
100
AcDbEntity
  8
0
 62
     0
440
 16777216
100
AcDbTrace
 10
880.9629044360727
 20
56.47409098522626
 30
0.0
 11
880.9629044360727
 21
56.43242431855958
 31
0.0
 12
880.8379044360727
 22
56.45325765189292
 32
0.0
 13
880.8379044360727
 23
56.45325765189292
 33
0.0
  0
SOLID
  5
19F62
330
18B5D
100
AcDbEntity
  8
0
 62
     0
440
 16777216
100
AcDbTrace
 10
879.9629044360727
 20
56.47409098522626
 30
0.0
 11
879.9629044360727
 21
56.43242431855958
 31
0.0
 12
880.0879044360726
 22
56.45325765189292
 32
0.0
 13
880.0879044360726
 23
56.45325765189292
 33
0.0
  0
MTEXT
  5
19F63
330
18B5D
100
AcDbEntity
  8
0
 62
     0
440
 16777216
370
    35
100
AcDbMText
 10
880.4629044360726
 20
56.45325765189292
 30
0.0
 40
0.15
 41
0.0
 46
0.0
 71
     5
 72
     1
  1
\A1;0.750
  7
ARIAL-1
 73
     1
 44
1.0
  0
POINT
  5
19F64
330
18B5D
100
AcDbEntity
  8
Defpoints
 62
     0
440
 16777216
100
AcDbPoint
 10
880.8379044360727
 20
56.15271426956592
 30
0.0
  0
POINT
  5
19F65
330
18B5D
100
AcDbEntity
  8
Defpoints
 62
     0
440
 16777216
100
AcDbPoint
 10
880.0879044360726
 20
56.15271426956592
 30
0.0
  0
POINT
  5
19F66
330
18B5D
100
AcDbEntity
  8
Defpoints
 62
     0
440
 16777216
100
AcDbPoint
 10
880.0879044360726
 20
56.45325765189292
 30
0.0
  0
ENDBLK
  5
18B69
330
18B5D
100
AcDbEntity
  8
0
100
AcDbBlockEnd
  0
BLOCK
  5
18D2A
330
18D28
100
AcDbEntity
  8
0
100
AcDbBlockBegin
  2
GENAXEH
 70
     0
 10
0.0
 20
0.0
 30
0.0
  3
GENAXEH
  1

  0
LINE
  5
18D29
330
18D28
100
AcDbEntity
  8
0
100
AcDbLine
 10
-1.0
 20
0.0
 30
0.0
 11
1.0
 21
0.0
 31
0.0
  0
ENDBLK
  5
18D2B
330
18D28
100
AcDbEntity
  8
0
100
AcDbBlockEnd
  0
BLOCK
  5
18D37
330
18D36
100
AcDbEntity
  8
0
100
AcDbBlockBegin
  2
_ACMFILLEDHALF
 70
     0
 10
0.0
 20
0.0
 30
0.0
  3
_ACMFILLEDHALF
  1

  0
TRACE
  5
18D39
330
18D36
100
AcDbEntity
  8
PERF_FILL
 62
     0
100
AcDbTrace
 10
-0.8
 20
0.0
 30
0.0
 11
-1.0
 21
0.166666666
 31
0.0
 12
0.0
 22
0.0
 32
0.0
 13
0.0
 23
0.0
 33
0.0
  0
LINE
  5
18D3A
330
18D36
100
AcDbEntity
  8
PERF_FILL
 62
     0
100
AcDbLine
 10
-1.0
 20
0.0
 30
0.0
 11
-0.8
 21
0.0
 31
0.0
  0
ENDBLK
  5
18D38
330
18D36
100
AcDbEntity
  8
0
100
AcDbBlockEnd
  0
BLOCK
  5
19A8B
330
19A8A
100
AcDbEntity
  8
0
100
AcDbBlockBegin
  2
_ACMNONE
 70
     0
 10
0.0
 20
0.0
 30
0.0
  3
_ACMNONE
  1

  0
LINE
  5
19A8D
330
19A8A
100
AcDbEntity
  8
0
 62
     0
100
AcDbLine
 10
-1.0
 20
0.0
 30
0.0
 11
0.0
 21
0.0
 31
0.0
  0
ENDBLK
  5
19A8C
330
19A8A
100
AcDbEntity
  8
0
100
AcDbBlockEnd
  0
BLOCK
  5
19B3C
330
19B3B
100
AcDbEntity
  8
0
100
AcDbBlockBegin
  2
*D7
 70
     1
 10
0.0
 20
0.0
 30
0.0
  3
*D7
  1

  0
LINE
  5
19F53
330
19B3B
100
AcDbEntity
  8
0
 62
     0
440
 16777216
370
    -2
100
AcDbLine
 10
878.2754044360727
 20
54.40271426956592
 30
0.0
 11
877.8359696454602
 21
54.40271426956592
 31
0.0
  0
LINE
  5
19F54
330
19B3B
100
AcDbEntity
  8
0
 62
     0
440
 16777216
370
    -2
100
AcDbLine
 10
878.2754044360727
 20
53.65271426956592
 30
0.0
 11
877.8359696454602
 21
53.65271426956592
 31
0.0
  0
LINE
  5
19F55
330
19B3B
100
AcDbEntity
  8
0
 62
     0
440
 16777216
370
    -2
100
AcDbLine
 10
877.8984696454601
 20
54.52771426956593
 30
0.0
 11
877.8984696454601
 21
54.65271426956593
 31
0.0
  0
LINE
  5
19F56
330
19B3B
100
AcDbEntity
  8
0
 62
     0
440
 16777216
370
    -2
100
AcDbLine
 10
877.8984696454601
 20
53.52771426956593
 30
0.0
 11
877.8984696454601
 21
53.40271426956593
 31
0.0
  0
SOLID
  5
19F57
330
19B3B
100
AcDbEntity
  8
0
 62
     0
440
 16777216
100
AcDbTrace
 10
877.8776363121268
 20
54.52771426956593
 30
0.0
 11
877.9193029787936
 21
54.52771426956593
 31
0.0
 12
877.8984696454601
 22
54.40271426956592
 32
0.0
 13
877.8984696454601
 23
54.40271426956592
 33
0.0
  0
SOLID
  5
19F58
330
19B3B
100
AcDbEntity
  8
0
 62
     0
440
 16777216
100
AcDbTrace
 10
877.8776363121268
 20
53.52771426956593
 30
0.0
 11
877.9193029787936
 21
53.52771426956593
 31
0.0
 12
877.8984696454601
 22
53.65271426956592
 32
0.0
 13
877.8984696454601
 23
53.65271426956592
 33
0.0
  0
MTEXT
  5
19F59
330
19B3B
100
AcDbEntity
  8
0
 62
     0
440
 16777216
370
    35
100
AcDbMText
 10
877.8984696454601
 20
54.02771426956606
 30
0.0
 40
0.15
 41
0.0
 46
0.0
 71
     5
 72
     1
  1
\A1;0.750
  7
ARIAL-1
 11
0.0000000000000001
 21
1.0
 31
0.0
 73
     1
 44
1.0
  0
POINT
  5
19F5A
330
19B3B
100
AcDbEntity
  8
Defpoints
 62
     0
440
 16777216
100
AcDbPoint
 10
878.3379044360726
 20
54.40271426956592
 30
0.0
  0
POINT
  5
19F5B
330
19B3B
100
AcDbEntity
  8
Defpoints
 62
     0
440
 16777216
100
AcDbPoint
 10
878.3379044360726
 20
53.65271426956592
 30
0.0
  0
POINT
  5
19F5C
330
19B3B
100
AcDbEntity
  8
Defpoints
 62
     0
440
 16777216
100
AcDbPoint
 10
877.8984696454601
 20
53.65271426956592
 30
0.0
  0
ENDBLK
  5
19B3D
330
19B3B
100
AcDbEntity
  8
0
100
AcDbBlockEnd
  0
BLOCK
  5
19B4A
330
19B49
100
AcDbEntity
  8
0
100
AcDbBlockBegin
  2
*D8
 70
     1
 10
0.0
 20
0.0
 30
0.0
  3
*D8
  1

  0
LINE
  5
19F3F
330
19B49
100
AcDbEntity
  8
0
 62
     0
440
 16777216
370
    -2
100
AcDbLine
 10
880.337876948033
 20
49.83785148466444
 30
0.0
 11
880.337876948033
 21
49.20115435892107
 31
0.0
  0
LINE
  5
19F40
330
19B49
100
AcDbEntity
  8
0
 62
     0
440
 16777216
370
    -2
100
AcDbLine
 10
880.5878769480331
 20
49.83785148466444
 30
0.0
 11
880.5878769480331
 21
49.20115435892107
 31
0.0
  0
LINE
  5
19F41
330
19B49
100
AcDbEntity
  8
0
 62
     0
440
 16777216
370
    -2
100
AcDbLine
 10
880.2128769480331
 20
49.26365435892107
 30
0.0
 11
880.087876948033
 21
49.26365435892107
 31
0.0
  0
LINE
  5
19F42
330
19B49
100
AcDbEntity
  8
0
 62
     0
440
 16777216
370
    -2
100
AcDbLine
 10
880.712876948033
 20
49.26365435892107
 30
0.0
 11
880.8378769480331
 21
49.26365435892107
 31
0.0
  0
SOLID
  5
19F43
330
19B49
100
AcDbEntity
  8
0
 62
     0
440
 16777216
100
AcDbTrace
 10
880.2128769480331
 20
49.28448769225441
 30
0.0
 11
880.2128769480331
 21
49.24282102558773
 31
0.0
 12
880.337876948033
 22
49.26365435892107
 32
0.0
 13
880.337876948033
 23
49.26365435892107
 33
0.0
  0
SOLID
  5
19F44
330
19B49
100
AcDbEntity
  8
0
 62
     0
440
 16777216
100
AcDbTrace
 10
880.712876948033
 20
49.28448769225441
 30
0.0
 11
880.712876948033
 21
49.24282102558773
 31
0.0
 12
880.5878769480331
 22
49.26365435892107
 32
0.0
 13
880.5878769480331
 23
49.26365435892107
 33
0.0
  0
MTEXT
  5
19F45
330
19B49
100
AcDbEntity
  8
0
 62
     0
440
 16777216
370
    35
100
AcDbMText
 10
881.0712279030125
 20
49.26365435892107
 30
0.0
 40
0.15
 41
0.0
 46
0.0
 71
     5
 72
     1
  1
\A1;0.250
  7
ARIAL-1
 73
     1
 44
1.0
  0
POINT
  5
19F46
330
19B49
100
AcDbEntity
  8
Defpoints
 62
     0
440
 16777216
100
AcDbPoint
 10
880.337876948033
 20
49.90035148466444
 30
0.0
  0
POINT
  5
19F47
330
19B49
100
AcDbEntity
  8
Defpoints
 62
     0
440
 16777216
100
AcDbPoint
 10
880.5878769480331
 20
49.90035148466444
 30
0.0
  0
POINT
  5
19F48
330
19B49
100
AcDbEntity
  8
Defpoints
 62
     0
440
 16777216
100
AcDbPoint
 10
880.5878769480331
 20
49.26365435892107
 30
0.0
  0
ENDBLK
  5
19B4B
330
19B49
100
AcDbEntity
  8
0
100
AcDbBlockEnd
  0
BLOCK
  5
19B58
330
19B57
100
AcDbEntity
  8
0
100
AcDbBlockBegin
  2
*D9
 70
     1
 10
0.0
 20
0.0
 30
0.0
  3
*D9
  1

  0
LINE
  5
19F35
330
19B57
100
AcDbEntity
  8
0
 62
     0
440
 16777216
370
    -2
100
AcDbLine
 10
883.9003769480331
 20
50.90035148466444
 30
0.0
 11
884.6138003378284
 21
50.90035148466444
 31
0.0
  0
LINE
  5
19F36
330
19B57
100
AcDbEntity
  8
0
 62
     0
440
 16777216
370
    -2
100
AcDbLine
 10
883.9003769480331
 20
51.15035148466444
 30
0.0
 11
884.6138003378284
 21
51.15035148466444
 31
0.0
  0
LINE
  5
19F37
330
19B57
100
AcDbEntity
  8
0
 62
     0
440
 16777216
370
    -2
100
AcDbLine
 10
884.5513003378286
 20
50.77535148466444
 30
0.0
 11
884.5513003378286
 21
50.65035148466444
 31
0.0
  0
LINE
  5
19F38
330
19B57
100
AcDbEntity
  8
0
 62
     0
440
 16777216
370
    -2
100
AcDbLine
 10
884.5513003378286
 20
51.27535148466444
 30
0.0
 11
884.5513003378286
 21
51.40035148466444
 31
0.0
  0
SOLID
  5
19F39
330
19B57
100
AcDbEntity
  8
0
 62
     0
440
 16777216
100
AcDbTrace
 10
884.5304670044951
 20
50.77535148466444
 30
0.0
 11
884.5721336711617
 21
50.77535148466444
 31
0.0
 12
884.5513003378286
 22
50.90035148466444
 32
0.0
 13
884.5513003378286
 23
50.90035148466444
 33
0.0
  0
SOLID
  5
19F3A
330
19B57
100
AcDbEntity
  8
0
 62
     0
440
 16777216
100
AcDbTrace
 10
884.5304670044951
 20
51.27535148466444
 30
0.0
 11
884.5721336711617
 21
51.27535148466444
 31
0.0
 12
884.5513003378286
 22
51.15035148466444
 32
0.0
 13
884.5513003378286
 23
51.15035148466444
 33
0.0
  0
MTEXT
  5
19F3B
330
19B57
100
AcDbEntity
  8
0
 62
     0
440
 16777216
370
    35
100
AcDbMText
 10
884.5513003378286
 20
51.63370243964411
 30
0.0
 40
0.15
 41
0.0
 46
0.0
 71
     5
 72
     1
  1
\A1;0.250
  7
ARIAL-1
 11
0.0000000000000001
 21
1.0
 31
0.0
 73
     1
 44
1.0
  0
POINT
  5
19F3C
330
19B57
100
AcDbEntity
  8
Defpoints
 62
     0
440
 16777216
100
AcDbPoint
 10
883.837876948033
 20
50.90035148466444
 30
0.0
  0
POINT
  5
19F3D
330
19B57
100
AcDbEntity
  8
Defpoints
 62
     0
440
 16777216
100
AcDbPoint
 10
883.837876948033
 20
51.15035148466444
 30
0.0
  0
POINT
  5
19F3E
330
19B57
100
AcDbEntity
  8
Defpoints
 62
     0
440
 16777216
100
AcDbPoint
 10
884.5513003378286
 20
51.15035148466444
 30
0.0
  0
ENDBLK
  5
19B59
330
19B57
100
AcDbEntity
  8
0
100
AcDbBlockEnd
  0
BLOCK
  5
19B85
330
19B84
100
AcDbEntity
  8
0
100
AcDbBlockBegin
  2
*D10
 70
     1
 10
0.0
 20
0.0
 30
0.0
  3
*D10
  1

  0
LINE
  5
19F49
330
19B84
100
AcDbEntity
  8
0
 62
     0
440
 16777216
370
    -2
100
AcDbLine
 10
878.525376948033
 20
51.65035148466444
 30
0.0
 11
877.8359696454602
 21
51.65035148466444
 31
0.0
  0
LINE
  5
19F4A
330
19B84
100
AcDbEntity
  8
0
 62
     0
440
 16777216
370
    -2
100
AcDbLine
 10
878.525376948033
 20
51.15035148466444
 30
0.0
 11
877.8359696454602
 21
51.15035148466444
 31
0.0
  0
LINE
  5
19F4B
330
19B84
100
AcDbEntity
  8
0
 62
     0
440
 16777216
370
    -2
100
AcDbLine
 10
877.8984696454601
 20
51.77535148466444
 30
0.0
 11
877.8984696454601
 21
51.90035148466444
 31
0.0
  0
LINE
  5
19F4C
330
19B84
100
AcDbEntity
  8
0
 62
     0
440
 16777216
370
    -2
100
AcDbLine
 10
877.8984696454601
 20
51.02535148466444
 30
0.0
 11
877.8984696454601
 21
50.90035148466444
 31
0.0
  0
SOLID
  5
19F4D
330
19B84
100
AcDbEntity
  8
0
 62
     0
440
 16777216
100
AcDbTrace
 10
877.8776363121268
 20
51.77535148466444
 30
0.0
 11
877.9193029787936
 21
51.77535148466444
 31
0.0
 12
877.8984696454601
 22
51.65035148466444
 32
0.0
 13
877.8984696454601
 23
51.65035148466444
 33
0.0
  0
SOLID
  5
19F4E
330
19B84
100
AcDbEntity
  8
0
 62
     0
440
 16777216
100
AcDbTrace
 10
877.8776363121268
 20
51.02535148466444
 30
0.0
 11
877.9193029787936
 21
51.02535148466444
 31
0.0
 12
877.8984696454601
 22
51.15035148466444
 32
0.0
 13
877.8984696454601
 23
51.15035148466444
 33
0.0
  0
MTEXT
  5
19F4F
330
19B84
100
AcDbEntity
  8
0
 62
     0
440
 16777216
370
    35
100
AcDbMText
 10
877.8984696454601
 20
51.40035148466457
 30
0.0
 40
0.15
 41
0.0
 46
0.0
 71
     5
 72
     1
  1
\A1;0.500
  7
ARIAL-1
 11
0.0000000000000001
 21
1.0
 31
0.0
 73
     1
 44
1.0
  0
POINT
  5
19F50
330
19B84
100
AcDbEntity
  8
Defpoints
 62
     0
440
 16777216
100
AcDbPoint
 10
878.5878769480333
 20
51.65035148466444
 30
0.0
  0
POINT
  5
19F51
330
19B84
100
AcDbEntity
  8
Defpoints
 62
     0
440
 16777216
100
AcDbPoint
 10
878.5878769480333
 20
51.15035148466444
 30
0.0
  0
POINT
  5
19F52
330
19B84
100
AcDbEntity
  8
Defpoints
 62
     0
440
 16777216
100
AcDbPoint
 10
877.8984696454601
 20
51.15035148466444
 30
0.0
  0
ENDBLK
  5
19B86
330
19B84
100
AcDbEntity
  8
0
100
AcDbBlockEnd
  0
BLOCK
  5
19FA1
330
19F99
100
AcDbEntity
  8
0
100
AcDbBlockBegin
  2
A$C141600C6
 70
     0
 10
0.0
 20
0.0
 30
0.0
  3
A$C141600C6
  1

  0
OLE2FRAME
  5
19F9A
330
19F99
100
AcDbEntity
  8
PERF_FILL
100
AcDbOle2Frame
 70
     2
 73
     1
 90
        0
1001
ACAD
1000
OLEBEGIN
1070
    70
1070
     1
1070
    71
1070
     1
1070
    40
1040
0.0
1070
    41
1040
2.666984913297483
1070
    42
1040
1.128584119373555
1070
    72
1070
     0
1070
     3
1000

1070
    90
1071
        0
1070
    43
1040
0.0
1070
     4
1000

1070
    91
1071
        0
1070
    44
1040
0.0
1000
OLEEND
  0
LINE
  5
19F9B
330
19F99
100
AcDbEntity
  8
PERF_FILL
100
AcDbLine
 10
0.0551312529589723
 20
1.138416525847567
 30
0.0
 11
2.722116166256455
 21
1.138416525847567
 31
0.0
  0
LINE
  5
19F9C
330
19F99
100
AcDbEntity
  8
PERF_FILL
100
AcDbLine
 10
2.722116166256455
 20
1.138416525847567
 30
0.0
 11
2.722116166256455
 21
0.0098324064740112
 31
0.0
  0
LINE
  5
19F9D
330
19F99
100
AcDbEntity
  8
PERF_FILL
100
AcDbLine
 10
2.722116166256455
 20
0.0098324064740112
 30
0.0
 11
0.0551312529589723
 21
0.0098324064740112
 31
0.0
  0
LINE
  5
19F9E
330
19F99
100
AcDbEntity
  8
PERF_FILL
100
AcDbLine
 10
0.0551312529589723
 20
0.0098324064740112
 30
0.0
 11
0.0551312529589723
 21
1.138416525847567
 31
0.0
  0
ENDBLK
  5
19FA2
330
19F99
100
AcDbEntity
  8
0
100
AcDbBlockEnd
  0
ENDSEC
  0
SECTION
  2
ENTITIES
  0
INSERT
  5
13415
330
1F
100
AcDbEntity
  8
0
 62
     7
100
AcDbBlockReference
  2
AI9-BLK5
 10
883.8998947005379
 20
46.6316864879288
 30
0.0
 41
0.03125
 42
0.03125
 43
0.03125
  0
LWPOLYLINE
  5
18AD1
330
1F
100
AcDbEntity
  8
0
100
AcDbPolyline
 90
       12
 70
     1
 43
0.0
 10
878.6894669360727
 20
52.75427676956592
 10
878.6894669360727
 20
52.80115176956592
 10
878.7363419360726
 20
52.80115176956592
 42
0.9999999999999998
 10
878.7363419360726
 20
53.00427676956593
 10
878.6894669360727
 20
53.00427676956593
 10
878.6894669360727
 20
53.05115176956593
 42
0.9999999999999998
 10
878.4863419360727
 20
53.05115176956593
 10
878.4863419360727
 20
53.00427676956593
 10
878.4394669360727
 20
53.00427676956593
 42
0.9999999999999998
 10
878.4394669360727
 20
52.80115176956592
 10
878.4863419360727
 20
52.80115176956592
 10
878.4863419360727
 20
52.75427676956592
 42
0.9999999999999998
  0
LWPOLYLINE
  5
18AD2
330
1F
100
AcDbEntity
  8
0
100
AcDbPolyline
 90
       12
 70
     1
 43
0.0
 10
878.6894669360727
 20
55.75427676956593
 10
878.6894669360727
 20
55.80115176956592
 10
878.7363419360726
 20
55.80115176956592
 42
0.9999999999999998
 10
878.7363419360726
 20
56.00427676956592
 10
878.6894669360727
 20
56.00427676956592
 10
878.6894669360727
 20
56.05115176956593
 42
0.9999999999999998
 10
878.4863419360727
 20
56.05115176956593
 10
878.4863419360727
 20
56.00427676956592
 10
878.4394669360727
 20
56.00427676956592
 42
0.9999999999999998
 10
878.4394669360727
 20
55.80115176956592
 10
878.4863419360727
 20
55.80115176956592
 10
878.4863419360727
 20
55.75427676956593
 42
0.9999999999999998
  0
LWPOLYLINE
  5
18AD3
330
1F
100
AcDbEntity
  8
0
100
AcDbPolyline
 90
       12
 70
     1
 43
0.0
 10
878.6894669360727
 20
55.00427676956593
 10
878.6894669360727
 20
55.05115176956593
 10
878.7363419360726
 20
55.05115176956593
 42
0.9999999999999998
 10
878.7363419360726
 20
55.25427676956592
 10
878.6894669360727
 20
55.25427676956592
 10
878.6894669360727
 20
55.30115176956592
 42
0.9999999999999998
 10
878.4863419360727
 20
55.30115176956592
 10
878.4863419360727
 20
55.25427676956592
 10
878.4394669360727
 20
55.25427676956592
 42
0.9999999999999998
 10
878.4394669360727
 20
55.05115176956593
 10
878.4863419360727
 20
55.05115176956593
 10
878.4863419360727
 20
55.00427676956593
 42
0.9999999999999998
  0
LWPOLYLINE
  5
18AD4
330
1F
100
AcDbEntity
  8
0
100
AcDbPolyline
 90
       12
 70
     1
 43
0.0
 10
878.6894669360727
 20
54.25427676956593
 10
878.6894669360727
 20
54.30115176956593
 10
878.7363419360726
 20
54.30115176956593
 42
0.9999999999999998
 10
878.7363419360726
 20
54.50427676956593
 10
878.6894669360727
 20
54.50427676956593
 10
878.6894669360727
 20
54.55115176956592
 42
0.9999999999999998
 10
878.4863419360727
 20
54.55115176956592
 10
878.4863419360727
 20
54.50427676956593
 10
878.4394669360727
 20
54.50427676956593
 42
0.9999999999999998
 10
878.4394669360727
 20
54.30115176956593
 10
878.4863419360727
 20
54.30115176956593
 10
878.4863419360727
 20
54.25427676956593
 42
0.9999999999999998
  0
LWPOLYLINE
  5
18AD5
330
1F
100
AcDbEntity
  8
0
100
AcDbPolyline
 90
       12
 70
     1
 43
0.0
 10
878.6894669360727
 20
53.50427676956592
 10
878.6894669360727
 20
53.55115176956593
 10
878.7363419360726
 20
53.55115176956593
 42
0.9999999999999998
 10
878.7363419360726
 20
53.75427676956593
 10
878.6894669360727
 20
53.75427676956593
 10
878.6894669360727
 20
53.80115176956593
 42
0.9999999999999998
 10
878.4863419360727
 20
53.80115176956593
 10
878.4863419360727
 20
53.75427676956593
 10
878.4394669360727
 20
53.75427676956593
 42
0.9999999999999998
 10
878.4394669360727
 20
53.55115176956593
 10
878.4863419360727
 20
53.55115176956593
 10
878.4863419360727
 20
53.50427676956592
 42
0.9999999999999998
  0
LWPOLYLINE
  5
18AD6
330
1F
100
AcDbEntity
  8
0
100
AcDbPolyline
 90
       12
 70
     1
 43
0.0
 10
881.1113419360728
 20
53.12927676956593
 10
881.1113419360728
 20
53.17615176956593
 10
881.0644669360726
 20
53.17615176956593
 42
-0.9999999999999998
 10
881.0644669360726
 20
53.37927676956592
 10
881.1113419360728
 20
53.37927676956592
 10
881.1113419360728
 20
53.42615176956592
 42
-0.9999999999999998
 10
881.3144669360728
 20
53.42615176956592
 10
881.3144669360728
 20
53.37927676956592
 10
881.3613419360727
 20
53.37927676956592
 42
-0.9999999999999998
 10
881.3613419360727
 20
53.17615176956593
 10
881.3144669360728
 20
53.17615176956593
 10
881.3144669360728
 20
53.12927676956593
 42
-0.9999999999999998
  0
LWPOLYLINE
  5
18AD7
330
1F
100
AcDbEntity
  8
0
100
AcDbPolyline
 90
       12
 70
     1
 43
0.0
 10
882.064466936073
 20
53.12927676956593
 10
882.064466936073
 20
53.17615176956593
 10
882.1113419360727
 20
53.17615176956593
 42
0.9999999999999998
 10
882.1113419360727
 20
53.37927676956592
 10
882.064466936073
 20
53.37927676956592
 10
882.064466936073
 20
53.42615176956592
 42
0.9999999999999998
 10
881.8613419360726
 20
53.42615176956592
 10
881.8613419360726
 20
53.37927676956592
 10
881.8144669360727
 20
53.37927676956592
 42
0.9999999999999998
 10
881.8144669360727
 20
53.17615176956593
 10
881.8613419360726
 20
53.17615176956593
 10
881.8613419360726
 20
53.12927676956593
 42
0.9999999999999998
  0
LWPOLYLINE
  5
18AD8
330
1F
100
AcDbEntity
  8
0
100
AcDbPolyline
 90
       12
 70
     1
 43
0.0
 10
879.4394669360727
 20
52.75427676956592
 10
879.4394669360727
 20
52.80115176956592
 10
879.4863419360726
 20
52.80115176956592
 42
0.9999999999999998
 10
879.4863419360726
 20
53.00427676956593
 10
879.4394669360727
 20
53.00427676956593
 10
879.4394669360727
 20
53.05115176956593
 42
0.9999999999999998
 10
879.2363419360727
 20
53.05115176956593
 10
879.2363419360727
 20
53.00427676956593
 10
879.1894669360727
 20
53.00427676956593
 42
0.9999999999999998
 10
879.1894669360727
 20
52.80115176956592
 10
879.2363419360727
 20
52.80115176956592
 10
879.2363419360727
 20
52.75427676956592
 42
0.9999999999999998
  0
LWPOLYLINE
  5
18AD9
330
1F
100
AcDbEntity
  8
0
100
AcDbPolyline
 90
       12
 70
     1
 43
0.0
 10
880.1894669360727
 20
52.75427676956592
 10
880.1894669360727
 20
52.80115176956592
 10
880.2363419360727
 20
52.80115176956592
 42
0.9999999999999998
 10
880.2363419360727
 20
53.00427676956593
 10
880.1894669360727
 20
53.00427676956593
 10
880.1894669360727
 20
53.05115176956593
 42
0.9999999999999998
 10
879.9863419360727
 20
53.05115176956593
 10
879.9863419360727
 20
53.00427676956593
 10
879.9394669360728
 20
53.00427676956593
 42
0.9999999999999998
 10
879.9394669360728
 20
52.80115176956592
 10
879.9863419360727
 20
52.80115176956592
 10
879.9863419360727
 20
52.75427676956592
 42
0.9999999999999998
  0
LWPOLYLINE
  5
18ADA
330
1F
100
AcDbEntity
  8
0
100
AcDbPolyline
 90
       12
 70
     1
 43
0.0
 10
880.9394669360727
 20
52.75427676956592
 10
880.9394669360727
 20
52.80115176956592
 10
880.9863419360727
 20
52.80115176956592
 42
0.9999999999999998
 10
880.9863419360727
 20
53.00427676956593
 10
880.9394669360727
 20
53.00427676956593
 10
880.9394669360727
 20
53.05115176956593
 42
0.9999999999999998
 10
880.7363419360727
 20
53.05115176956593
 10
880.7363419360727
 20
53.00427676956593
 10
880.6894669360726
 20
53.00427676956593
 42
0.9999999999999998
 10
880.6894669360726
 20
52.80115176956592
 10
880.7363419360727
 20
52.80115176956592
 10
880.7363419360727
 20
52.75427676956592
 42
0.9999999999999998
  0
LWPOLYLINE
  5
18ADB
330
1F
100
AcDbEntity
  8
0
100
AcDbPolyline
 90
       12
 70
     1
 43
0.0
 10
881.6894669360728
 20
52.75427676956592
 10
881.6894669360728
 20
52.80115176956592
 10
881.7363419360727
 20
52.80115176956592
 42
0.9999999999999998
 10
881.7363419360727
 20
53.00427676956593
 10
881.6894669360728
 20
53.00427676956593
 10
881.6894669360728
 20
53.05115176956593
 42
0.9999999999999998
 10
881.486341936073
 20
53.05115176956593
 10
881.486341936073
 20
53.00427676956593
 10
881.4394669360726
 20
53.00427676956593
 42
0.9999999999999998
 10
881.4394669360726
 20
52.80115176956592
 10
881.486341936073
 20
52.80115176956592
 10
881.486341936073
 20
52.75427676956592
 42
0.9999999999999998
  0
LWPOLYLINE
  5
18ADC
330
1F
100
AcDbEntity
  8
0
100
AcDbPolyline
 90
       12
 70
     1
 43
0.0
 10
882.4394669360726
 20
52.75427676956592
 10
882.4394669360726
 20
52.80115176956592
 10
882.4863419360728
 20
52.80115176956592
 42
0.9999999999999998
 10
882.4863419360728
 20
53.00427676956593
 10
882.4394669360726
 20
53.00427676956593
 10
882.4394669360726
 20
53.05115176956593
 42
0.9999999999999998
 10
882.2363419360726
 20
53.05115176956593
 10
882.2363419360726
 20
53.00427676956593
 10
882.1894669360727
 20
53.00427676956593
 42
0.9999999999999998
 10
882.1894669360727
 20
52.80115176956592
 10
882.2363419360726
 20
52.80115176956592
 10
882.2363419360726
 20
52.75427676956592
 42
0.9999999999999998
  0
LWPOLYLINE
  5
18ADD
330
1F
100
AcDbEntity
  8
0
100
AcDbPolyline
 90
       12
 70
     1
 43
0.0
 10
879.4394669360727
 20
55.75427676956593
 10
879.4394669360727
 20
55.80115176956592
 10
879.4863419360726
 20
55.80115176956592
 42
0.9999999999999998
 10
879.4863419360726
 20
56.00427676956592
 10
879.4394669360727
 20
56.00427676956592
 10
879.4394669360727
 20
56.05115176956593
 42
0.9999999999999998
 10
879.2363419360727
 20
56.05115176956593
 10
879.2363419360727
 20
56.00427676956592
 10
879.1894669360727
 20
56.00427676956592
 42
0.9999999999999998
 10
879.1894669360727
 20
55.80115176956592
 10
879.2363419360727
 20
55.80115176956592
 10
879.2363419360727
 20
55.75427676956593
 42
0.9999999999999998
  0
LWPOLYLINE
  5
18ADE
330
1F
100
AcDbEntity
  8
0
100
AcDbPolyline
 90
       12
 70
     1
 43
0.0
 10
880.1894669360727
 20
55.75427676956593
 10
880.1894669360727
 20
55.80115176956592
 10
880.2363419360727
 20
55.80115176956592
 42
0.9999999999999998
 10
880.2363419360727
 20
56.00427676956592
 10
880.1894669360727
 20
56.00427676956592
 10
880.1894669360727
 20
56.05115176956593
 42
0.9999999999999998
 10
879.9863419360727
 20
56.05115176956593
 10
879.9863419360727
 20
56.00427676956592
 10
879.9394669360728
 20
56.00427676956592
 42
0.9999999999999998
 10
879.9394669360728
 20
55.80115176956592
 10
879.9863419360727
 20
55.80115176956592
 10
879.9863419360727
 20
55.75427676956593
 42
0.9999999999999998
  0
LWPOLYLINE
  5
18ADF
330
1F
100
AcDbEntity
  8
0
100
AcDbPolyline
 90
       12
 70
     1
 43
0.0
 10
880.9394669360727
 20
55.75427676956593
 10
880.9394669360727
 20
55.80115176956592
 10
880.9863419360727
 20
55.80115176956592
 42
0.9999999999999998
 10
880.9863419360727
 20
56.00427676956592
 10
880.9394669360727
 20
56.00427676956592
 10
880.9394669360727
 20
56.05115176956593
 42
0.9999999999999998
 10
880.7363419360727
 20
56.05115176956593
 10
880.7363419360727
 20
56.00427676956592
 10
880.6894669360726
 20
56.00427676956592
 42
0.9999999999999998
 10
880.6894669360726
 20
55.80115176956592
 10
880.7363419360727
 20
55.80115176956592
 10
880.7363419360727
 20
55.75427676956593
 42
0.9999999999999998
  0
LWPOLYLINE
  5
18AE0
330
1F
100
AcDbEntity
  8
0
100
AcDbPolyline
 90
       12
 70
     1
 43
0.0
 10
881.6894669360728
 20
55.75427676956593
 10
881.6894669360728
 20
55.80115176956592
 10
881.7363419360727
 20
55.80115176956592
 42
0.9999999999999998
 10
881.7363419360727
 20
56.00427676956592
 10
881.6894669360728
 20
56.00427676956592
 10
881.6894669360728
 20
56.05115176956593
 42
0.9999999999999998
 10
881.486341936073
 20
56.05115176956593
 10
881.486341936073
 20
56.00427676956592
 10
881.4394669360726
 20
56.00427676956592
 42
0.9999999999999998
 10
881.4394669360726
 20
55.80115176956592
 10
881.486341936073
 20
55.80115176956592
 10
881.486341936073
 20
55.75427676956593
 42
0.9999999999999998
  0
LWPOLYLINE
  5
18AE1
330
1F
100
AcDbEntity
  8
0
100
AcDbPolyline
 90
       12
 70
     1
 43
0.0
 10
882.4394669360726
 20
55.75427676956593
 10
882.4394669360726
 20
55.80115176956592
 10
882.4863419360728
 20
55.80115176956592
 42
0.9999999999999998
 10
882.4863419360728
 20
56.00427676956592
 10
882.4394669360726
 20
56.00427676956592
 10
882.4394669360726
 20
56.05115176956593
 42
0.9999999999999998
 10
882.2363419360726
 20
56.05115176956593
 10
882.2363419360726
 20
56.00427676956592
 10
882.1894669360727
 20
56.00427676956592
 42
0.9999999999999998
 10
882.1894669360727
 20
55.80115176956592
 10
882.2363419360726
 20
55.80115176956592
 10
882.2363419360726
 20
55.75427676956593
 42
0.9999999999999998
  0
LWPOLYLINE
  5
18AE2
330
1F
100
AcDbEntity
  8
0
100
AcDbPolyline
 90
       12
 70
     1
 43
0.0
 10
882.4394669360726
 20
55.00427676956593
 10
882.4394669360726
 20
55.05115176956593
 10
882.4863419360728
 20
55.05115176956593
 42
0.9999999999999998
 10
882.4863419360728
 20
55.25427676956592
 10
882.4394669360726
 20
55.25427676956592
 10
882.4394669360726
 20
55.30115176956592
 42
0.9999999999999998
 10
882.2363419360726
 20
55.30115176956592
 10
882.2363419360726
 20
55.25427676956592
 10
882.1894669360727
 20
55.25427676956592
 42
0.9999999999999998
 10
882.1894669360727
 20
55.05115176956593
 10
882.2363419360726
 20
55.05115176956593
 10
882.2363419360726
 20
55.00427676956593
 42
0.9999999999999998
  0
LWPOLYLINE
  5
18AE3
330
1F
100
AcDbEntity
  8
0
100
AcDbPolyline
 90
       12
 70
     1
 43
0.0
 10
881.6894669360728
 20
55.00427676956593
 10
881.6894669360728
 20
55.05115176956593
 10
881.7363419360727
 20
55.05115176956593
 42
0.9999999999999998
 10
881.7363419360727
 20
55.25427676956592
 10
881.6894669360728
 20
55.25427676956592
 10
881.6894669360728
 20
55.30115176956592
 42
0.9999999999999998
 10
881.486341936073
 20
55.30115176956592
 10
881.486341936073
 20
55.25427676956592
 10
881.4394669360726
 20
55.25427676956592
 42
0.9999999999999998
 10
881.4394669360726
 20
55.05115176956593
 10
881.486341936073
 20
55.05115176956593
 10
881.486341936073
 20
55.00427676956593
 42
0.9999999999999998
  0
LWPOLYLINE
  5
18AE4
330
1F
100
AcDbEntity
  8
0
100
AcDbPolyline
 90
       12
 70
     1
 43
0.0
 10
880.9394669360727
 20
55.00427676956593
 10
880.9394669360727
 20
55.05115176956593
 10
880.9863419360727
 20
55.05115176956593
 42
0.9999999999999998
 10
880.9863419360727
 20
55.25427676956592
 10
880.9394669360727
 20
55.25427676956592
 10
880.9394669360727
 20
55.30115176956592
 42
0.9999999999999998
 10
880.7363419360727
 20
55.30115176956592
 10
880.7363419360727
 20
55.25427676956592
 10
880.6894669360726
 20
55.25427676956592
 42
0.9999999999999998
 10
880.6894669360726
 20
55.05115176956593
 10
880.7363419360727
 20
55.05115176956593
 10
880.7363419360727
 20
55.00427676956593
 42
0.9999999999999998
  0
LWPOLYLINE
  5
18AE5
330
1F
100
AcDbEntity
  8
0
100
AcDbPolyline
 90
       12
 70
     1
 43
0.0
 10
880.1894669360727
 20
55.00427676956593
 10
880.1894669360727
 20
55.05115176956593
 10
880.2363419360727
 20
55.05115176956593
 42
0.9999999999999998
 10
880.2363419360727
 20
55.25427676956592
 10
880.1894669360727
 20
55.25427676956592
 10
880.1894669360727
 20
55.30115176956592
 42
0.9999999999999998
 10
879.9863419360727
 20
55.30115176956592
 10
879.9863419360727
 20
55.25427676956592
 10
879.9394669360728
 20
55.25427676956592
 42
0.9999999999999998
 10
879.9394669360728
 20
55.05115176956593
 10
879.9863419360727
 20
55.05115176956593
 10
879.9863419360727
 20
55.00427676956593
 42
0.9999999999999998
  0
LWPOLYLINE
  5
18AE6
330
1F
100
AcDbEntity
  8
0
100
AcDbPolyline
 90
       12
 70
     1
 43
0.0
 10
879.4394669360727
 20
55.00427676956593
 10
879.4394669360727
 20
55.05115176956593
 10
879.4863419360726
 20
55.05115176956593
 42
0.9999999999999998
 10
879.4863419360726
 20
55.25427676956592
 10
879.4394669360727
 20
55.25427676956592
 10
879.4394669360727
 20
55.30115176956592
 42
0.9999999999999998
 10
879.2363419360727
 20
55.30115176956592
 10
879.2363419360727
 20
55.25427676956592
 10
879.1894669360727
 20
55.25427676956592
 42
0.9999999999999998
 10
879.1894669360727
 20
55.05115176956593
 10
879.2363419360727
 20
55.05115176956593
 10
879.2363419360727
 20
55.00427676956593
 42
0.9999999999999998
  0
LWPOLYLINE
  5
18AE7
330
1F
100
AcDbEntity
  8
0
100
AcDbPolyline
 90
       12
 70
     1
 43
0.0
 10
882.4394669360726
 20
54.25427676956593
 10
882.4394669360726
 20
54.30115176956593
 10
882.4863419360728
 20
54.30115176956593
 42
0.9999999999999998
 10
882.4863419360728
 20
54.50427676956593
 10
882.4394669360726
 20
54.50427676956593
 10
882.4394669360726
 20
54.55115176956592
 42
0.9999999999999998
 10
882.2363419360726
 20
54.55115176956592
 10
882.2363419360726
 20
54.50427676956593
 10
882.1894669360727
 20
54.50427676956593
 42
0.9999999999999998
 10
882.1894669360727
 20
54.30115176956593
 10
882.2363419360726
 20
54.30115176956593
 10
882.2363419360726
 20
54.25427676956593
 42
0.9999999999999998
  0
LWPOLYLINE
  5
18AE8
330
1F
100
AcDbEntity
  8
0
100
AcDbPolyline
 90
       12
 70
     1
 43
0.0
 10
881.6894669360728
 20
54.25427676956593
 10
881.6894669360728
 20
54.30115176956593
 10
881.7363419360727
 20
54.30115176956593
 42
0.9999999999999998
 10
881.7363419360727
 20
54.50427676956593
 10
881.6894669360728
 20
54.50427676956593
 10
881.6894669360728
 20
54.55115176956592
 42
0.9999999999999998
 10
881.486341936073
 20
54.55115176956592
 10
881.486341936073
 20
54.50427676956593
 10
881.4394669360726
 20
54.50427676956593
 42
0.9999999999999998
 10
881.4394669360726
 20
54.30115176956593
 10
881.486341936073
 20
54.30115176956593
 10
881.486341936073
 20
54.25427676956593
 42
0.9999999999999998
  0
LWPOLYLINE
  5
18AE9
330
1F
100
AcDbEntity
  8
0
100
AcDbPolyline
 90
       12
 70
     1
 43
0.0
 10
880.9394669360727
 20
54.25427676956593
 10
880.9394669360727
 20
54.30115176956593
 10
880.9863419360727
 20
54.30115176956593
 42
0.9999999999999998
 10
880.9863419360727
 20
54.50427676956593
 10
880.9394669360727
 20
54.50427676956593
 10
880.9394669360727
 20
54.55115176956592
 42
0.9999999999999998
 10
880.7363419360727
 20
54.55115176956592
 10
880.7363419360727
 20
54.50427676956593
 10
880.6894669360726
 20
54.50427676956593
 42
0.9999999999999998
 10
880.6894669360726
 20
54.30115176956593
 10
880.7363419360727
 20
54.30115176956593
 10
880.7363419360727
 20
54.25427676956593
 42
0.9999999999999998
  0
LWPOLYLINE
  5
18AEA
330
1F
100
AcDbEntity
  8
0
100
AcDbPolyline
 90
       12
 70
     1
 43
0.0
 10
880.1894669360727
 20
54.25427676956593
 10
880.1894669360727
 20
54.30115176956593
 10
880.2363419360727
 20
54.30115176956593
 42
0.9999999999999998
 10
880.2363419360727
 20
54.50427676956593
 10
880.1894669360727
 20
54.50427676956593
 10
880.1894669360727
 20
54.55115176956592
 42
0.9999999999999998
 10
879.9863419360727
 20
54.55115176956592
 10
879.9863419360727
 20
54.50427676956593
 10
879.9394669360728
 20
54.50427676956593
 42
0.9999999999999998
 10
879.9394669360728
 20
54.30115176956593
 10
879.9863419360727
 20
54.30115176956593
 10
879.9863419360727
 20
54.25427676956593
 42
0.9999999999999998
  0
LWPOLYLINE
  5
18AEB
330
1F
100
AcDbEntity
  8
0
100
AcDbPolyline
 90
       12
 70
     1
 43
0.0
 10
879.4394669360727
 20
54.25427676956593
 10
879.4394669360727
 20
54.30115176956593
 10
879.4863419360726
 20
54.30115176956593
 42
0.9999999999999998
 10
879.4863419360726
 20
54.50427676956593
 10
879.4394669360727
 20
54.50427676956593
 10
879.4394669360727
 20
54.55115176956592
 42
0.9999999999999998
 10
879.2363419360727
 20
54.55115176956592
 10
879.2363419360727
 20
54.50427676956593
 10
879.1894669360727
 20
54.50427676956593
 42
0.9999999999999998
 10
879.1894669360727
 20
54.30115176956593
 10
879.2363419360727
 20
54.30115176956593
 10
879.2363419360727
 20
54.25427676956593
 42
0.9999999999999998
  0
LWPOLYLINE
  5
18AEC
330
1F
100
AcDbEntity
  8
0
100
AcDbPolyline
 90
       12
 70
     1
 43
0.0
 10
882.4394669360726
 20
53.50427676956592
 10
882.4394669360726
 20
53.55115176956593
 10
882.4863419360728
 20
53.55115176956593
 42
0.9999999999999998
 10
882.4863419360728
 20
53.75427676956593
 10
882.4394669360726
 20
53.75427676956593
 10
882.4394669360726
 20
53.80115176956593
 42
0.9999999999999998
 10
882.2363419360726
 20
53.80115176956593
 10
882.2363419360726
 20
53.75427676956593
 10
882.1894669360727
 20
53.75427676956593
 42
0.9999999999999998
 10
882.1894669360727
 20
53.55115176956593
 10
882.2363419360726
 20
53.55115176956593
 10
882.2363419360726
 20
53.50427676956592
 42
0.9999999999999998
  0
LWPOLYLINE
  5
18AED
330
1F
100
AcDbEntity
  8
0
100
AcDbPolyline
 90
       12
 70
     1
 43
0.0
 10
881.6894669360728
 20
53.50427676956592
 10
881.6894669360728
 20
53.55115176956593
 10
881.7363419360727
 20
53.55115176956593
 42
0.9999999999999998
 10
881.7363419360727
 20
53.75427676956593
 10
881.6894669360728
 20
53.75427676956593
 10
881.6894669360728
 20
53.80115176956593
 42
0.9999999999999998
 10
881.486341936073
 20
53.80115176956593
 10
881.486341936073
 20
53.75427676956593
 10
881.4394669360726
 20
53.75427676956593
 42
0.9999999999999998
 10
881.4394669360726
 20
53.55115176956593
 10
881.486341936073
 20
53.55115176956593
 10
881.486341936073
 20
53.50427676956592
 42
0.9999999999999998
  0
LWPOLYLINE
  5
18AEE
330
1F
100
AcDbEntity
  8
0
100
AcDbPolyline
 90
       12
 70
     1
 43
0.0
 10
880.9394669360727
 20
53.50427676956592
 10
880.9394669360727
 20
53.55115176956593
 10
880.9863419360727
 20
53.55115176956593
 42
0.9999999999999998
 10
880.9863419360727
 20
53.75427676956593
 10
880.9394669360727
 20
53.75427676956593
 10
880.9394669360727
 20
53.80115176956593
 42
0.9999999999999998
 10
880.7363419360727
 20
53.80115176956593
 10
880.7363419360727
 20
53.75427676956593
 10
880.6894669360726
 20
53.75427676956593
 42
0.9999999999999998
 10
880.6894669360726
 20
53.55115176956593
 10
880.7363419360727
 20
53.55115176956593
 10
880.7363419360727
 20
53.50427676956592
 42
0.9999999999999998
  0
LWPOLYLINE
  5
18AEF
330
1F
100
AcDbEntity
  8
0
100
AcDbPolyline
 90
       12
 70
     1
 43
0.0
 10
880.1894669360727
 20
53.50427676956592
 10
880.1894669360727
 20
53.55115176956593
 10
880.2363419360727
 20
53.55115176956593
 42
0.9999999999999998
 10
880.2363419360727
 20
53.75427676956593
 10
880.1894669360727
 20
53.75427676956593
 10
880.1894669360727
 20
53.80115176956593
 42
0.9999999999999998
 10
879.9863419360727
 20
53.80115176956593
 10
879.9863419360727
 20
53.75427676956593
 10
879.9394669360728
 20
53.75427676956593
 42
0.9999999999999998
 10
879.9394669360728
 20
53.55115176956593
 10
879.9863419360727
 20
53.55115176956593
 10
879.9863419360727
 20
53.50427676956592
 42
0.9999999999999998
  0
LWPOLYLINE
  5
18AF0
330
1F
100
AcDbEntity
  8
0
100
AcDbPolyline
 90
       12
 70
     1
 43
0.0
 10
879.4394669360727
 20
53.50427676956592
 10
879.4394669360727
 20
53.55115176956593
 10
879.4863419360726
 20
53.55115176956593
 42
0.9999999999999998
 10
879.4863419360726
 20
53.75427676956593
 10
879.4394669360727
 20
53.75427676956593
 10
879.4394669360727
 20
53.80115176956593
 42
0.9999999999999998
 10
879.2363419360727
 20
53.80115176956593
 10
879.2363419360727
 20
53.75427676956593
 10
879.1894669360727
 20
53.75427676956593
 42
0.9999999999999998
 10
879.1894669360727
 20
53.55115176956593
 10
879.2363419360727
 20
53.55115176956593
 10
879.2363419360727
 20
53.50427676956592
 42
0.9999999999999998
  0
LWPOLYLINE
  5
18AF1
330
1F
100
AcDbEntity
  8
0
100
AcDbPolyline
 90
       12
 70
     1
 43
0.0
 10
880.3613419360727
 20
53.12927676956593
 10
880.3613419360727
 20
53.17615176956593
 10
880.314466936073
 20
53.17615176956593
 42
-0.9999999999999998
 10
880.314466936073
 20
53.37927676956592
 10
880.3613419360727
 20
53.37927676956592
 10
880.3613419360727
 20
53.42615176956592
 42
-0.9999999999999998
 10
880.5644669360727
 20
53.42615176956592
 10
880.5644669360727
 20
53.37927676956592
 10
880.6113419360727
 20
53.37927676956592
 42
-0.9999999999999998
 10
880.6113419360727
 20
53.17615176956593
 10
880.5644669360727
 20
53.17615176956593
 10
880.5644669360727
 20
53.12927676956593
 42
-0.9999999999999998
  0
LWPOLYLINE
  5
18AF2
330
1F
100
AcDbEntity
  8
0
100
AcDbPolyline
 90
       12
 70
     1
 43
0.0
 10
879.6113419360727
 20
53.12927676956593
 10
879.6113419360727
 20
53.17615176956593
 10
879.5644669360727
 20
53.17615176956593
 42
-0.9999999999999998
 10
879.5644669360727
 20
53.37927676956592
 10
879.6113419360727
 20
53.37927676956592
 10
879.6113419360727
 20
53.42615176956592
 42
-0.9999999999999998
 10
879.8144669360727
 20
53.42615176956592
 10
879.8144669360727
 20
53.37927676956592
 10
879.8613419360727
 20
53.37927676956592
 42
-0.9999999999999998
 10
879.8613419360727
 20
53.17615176956593
 10
879.8144669360727
 20
53.17615176956593
 10
879.8144669360727
 20
53.12927676956593
 42
-0.9999999999999998
  0
LWPOLYLINE
  5
18AF3
330
1F
100
AcDbEntity
  8
0
100
AcDbPolyline
 90
       12
 70
     1
 43
0.0
 10
878.8613419360727
 20
53.12927676956593
 10
878.8613419360727
 20
53.17615176956593
 10
878.8144669360727
 20
53.17615176956593
 42
-0.9999999999999998
 10
878.8144669360727
 20
53.37927676956592
 10
878.8613419360727
 20
53.37927676956592
 10
878.8613419360727
 20
53.42615176956592
 42
-0.9999999999999998
 10
879.0644669360727
 20
53.42615176956592
 10
879.0644669360727
 20
53.37927676956592
 10
879.1113419360726
 20
53.37927676956592
 42
-0.9999999999999998
 10
879.1113419360726
 20
53.17615176956593
 10
879.0644669360727
 20
53.17615176956593
 10
879.0644669360727
 20
53.12927676956593
 42
-0.9999999999999998
  0
LWPOLYLINE
  5
18AF4
330
1F
100
AcDbEntity
  8
0
100
AcDbPolyline
 90
       12
 70
     1
 43
0.0
 10
878.8613419360727
 20
54.17615176956593
 10
878.8613419360727
 20
54.12927676956592
 10
878.8144669360727
 20
54.12927676956592
 42
0.9999999999999998
 10
878.8144669360727
 20
53.92615176956592
 10
878.8613419360727
 20
53.92615176956592
 10
878.8613419360727
 20
53.87927676956593
 42
0.9999999999999998
 10
879.0644669360727
 20
53.87927676956593
 10
879.0644669360727
 20
53.92615176956592
 10
879.1113419360726
 20
53.92615176956592
 42
0.9999999999999998
 10
879.1113419360726
 20
54.12927676956592
 10
879.0644669360727
 20
54.12927676956592
 10
879.0644669360727
 20
54.17615176956593
 42
0.9999999999999998
  0
LWPOLYLINE
  5
18AF5
330
1F
100
AcDbEntity
  8
0
100
AcDbPolyline
 90
       12
 70
     1
 43
0.0
 10
879.6113419360727
 20
54.17615176956593
 10
879.6113419360727
 20
54.12927676956592
 10
879.5644669360727
 20
54.12927676956592
 42
0.9999999999999998
 10
879.5644669360727
 20
53.92615176956592
 10
879.6113419360727
 20
53.92615176956592
 10
879.6113419360727
 20
53.87927676956593
 42
0.9999999999999998
 10
879.8144669360727
 20
53.87927676956593
 10
879.8144669360727
 20
53.92615176956592
 10
879.8613419360727
 20
53.92615176956592
 42
0.9999999999999998
 10
879.8613419360727
 20
54.12927676956592
 10
879.8144669360727
 20
54.12927676956592
 10
879.8144669360727
 20
54.17615176956593
 42
0.9999999999999998
  0
LWPOLYLINE
  5
18AF6
330
1F
100
AcDbEntity
  8
0
100
AcDbPolyline
 90
       12
 70
     1
 43
0.0
 10
880.3613419360727
 20
54.17615176956593
 10
880.3613419360727
 20
54.12927676956592
 10
880.314466936073
 20
54.12927676956592
 42
0.9999999999999998
 10
880.314466936073
 20
53.92615176956592
 10
880.3613419360727
 20
53.92615176956592
 10
880.3613419360727
 20
53.87927676956593
 42
0.9999999999999998
 10
880.5644669360727
 20
53.87927676956593
 10
880.5644669360727
 20
53.92615176956592
 10
880.6113419360727
 20
53.92615176956592
 42
0.9999999999999998
 10
880.6113419360727
 20
54.12927676956592
 10
880.5644669360727
 20
54.12927676956592
 10
880.5644669360727
 20
54.17615176956593
 42
0.9999999999999998
  0
LWPOLYLINE
  5
18AF7
330
1F
100
AcDbEntity
  8
0
100
AcDbPolyline
 90
       12
 70
     1
 43
0.0
 10
882.064466936073
 20
54.17615176956593
 10
882.064466936073
 20
54.12927676956592
 10
882.1113419360727
 20
54.12927676956592
 42
-0.9999999999999998
 10
882.1113419360727
 20
53.92615176956592
 10
882.064466936073
 20
53.92615176956592
 10
882.064466936073
 20
53.87927676956593
 42
-0.9999999999999998
 10
881.8613419360726
 20
53.87927676956593
 10
881.8613419360726
 20
53.92615176956592
 10
881.8144669360727
 20
53.92615176956592
 42
-0.9999999999999998
 10
881.8144669360727
 20
54.12927676956592
 10
881.8613419360726
 20
54.12927676956592
 10
881.8613419360726
 20
54.17615176956593
 42
-0.9999999999999998
  0
LWPOLYLINE
  5
18AF8
330
1F
100
AcDbEntity
  8
0
100
AcDbPolyline
 90
       12
 70
     1
 43
0.0
 10
881.1113419360728
 20
54.17615176956593
 10
881.1113419360728
 20
54.12927676956592
 10
881.0644669360726
 20
54.12927676956592
 42
0.9999999999999998
 10
881.0644669360726
 20
53.92615176956592
 10
881.1113419360728
 20
53.92615176956592
 10
881.1113419360728
 20
53.87927676956593
 42
0.9999999999999998
 10
881.3144669360728
 20
53.87927676956593
 10
881.3144669360728
 20
53.92615176956592
 10
881.3613419360727
 20
53.92615176956592
 42
0.9999999999999998
 10
881.3613419360727
 20
54.12927676956592
 10
881.3144669360728
 20
54.12927676956592
 10
881.3144669360728
 20
54.17615176956593
 42
0.9999999999999998
  0
LWPOLYLINE
  5
18AF9
330
1F
100
AcDbEntity
  8
0
100
AcDbPolyline
 90
       12
 70
     1
 43
0.0
 10
881.1113419360728
 20
54.62927676956592
 10
881.1113419360728
 20
54.67615176956592
 10
881.0644669360726
 20
54.67615176956592
 42
-0.9999999999999998
 10
881.0644669360726
 20
54.87927676956593
 10
881.1113419360728
 20
54.87927676956593
 10
881.1113419360728
 20
54.92615176956593
 42
-0.9999999999999998
 10
881.3144669360728
 20
54.92615176956593
 10
881.3144669360728
 20
54.87927676956593
 10
881.3613419360727
 20
54.87927676956593
 42
-0.9999999999999998
 10
881.3613419360727
 20
54.67615176956592
 10
881.3144669360728
 20
54.67615176956592
 10
881.3144669360728
 20
54.62927676956592
 42
-0.9999999999999998
  0
LWPOLYLINE
  5
18AFA
330
1F
100
AcDbEntity
  8
0
100
AcDbPolyline
 90
       12
 70
     1
 43
0.0
 10
882.064466936073
 20
54.62927676956592
 10
882.064466936073
 20
54.67615176956592
 10
882.1113419360727
 20
54.67615176956592
 42
0.9999999999999998
 10
882.1113419360727
 20
54.87927676956593
 10
882.064466936073
 20
54.87927676956593
 10
882.064466936073
 20
54.92615176956593
 42
0.9999999999999998
 10
881.8613419360726
 20
54.92615176956593
 10
881.8613419360726
 20
54.87927676956593
 10
881.8144669360727
 20
54.87927676956593
 42
0.9999999999999998
 10
881.8144669360727
 20
54.67615176956592
 10
881.8613419360726
 20
54.67615176956592
 10
881.8613419360726
 20
54.62927676956592
 42
0.9999999999999998
  0
LWPOLYLINE
  5
18AFB
330
1F
100
AcDbEntity
  8
0
100
AcDbPolyline
 90
       12
 70
     1
 43
0.0
 10
880.3613419360727
 20
54.62927676956592
 10
880.3613419360727
 20
54.67615176956592
 10
880.314466936073
 20
54.67615176956592
 42
-0.9999999999999998
 10
880.314466936073
 20
54.87927676956593
 10
880.3613419360727
 20
54.87927676956593
 10
880.3613419360727
 20
54.92615176956593
 42
-0.9999999999999998
 10
880.5644669360727
 20
54.92615176956593
 10
880.5644669360727
 20
54.87927676956593
 10
880.6113419360727
 20
54.87927676956593
 42
-0.9999999999999998
 10
880.6113419360727
 20
54.67615176956592
 10
880.5644669360727
 20
54.67615176956592
 10
880.5644669360727
 20
54.62927676956592
 42
-0.9999999999999998
  0
LWPOLYLINE
  5
18AFC
330
1F
100
AcDbEntity
  8
0
100
AcDbPolyline
 90
       12
 70
     1
 43
0.0
 10
879.6113419360727
 20
54.62927676956592
 10
879.6113419360727
 20
54.67615176956592
 10
879.5644669360727
 20
54.67615176956592
 42
-0.9999999999999998
 10
879.5644669360727
 20
54.87927676956593
 10
879.6113419360727
 20
54.87927676956593
 10
879.6113419360727
 20
54.92615176956593
 42
-0.9999999999999998
 10
879.8144669360727
 20
54.92615176956593
 10
879.8144669360727
 20
54.87927676956593
 10
879.8613419360727
 20
54.87927676956593
 42
-0.9999999999999998
 10
879.8613419360727
 20
54.67615176956592
 10
879.8144669360727
 20
54.67615176956592
 10
879.8144669360727
 20
54.62927676956592
 42
-0.9999999999999998
  0
LWPOLYLINE
  5
18AFD
330
1F
100
AcDbEntity
  8
0
100
AcDbPolyline
 90
       12
 70
     1
 43
0.0
 10
878.8613419360727
 20
54.62927676956592
 10
878.8613419360727
 20
54.67615176956592
 10
878.8144669360727
 20
54.67615176956592
 42
-0.9999999999999998
 10
878.8144669360727
 20
54.87927676956593
 10
878.8613419360727
 20
54.87927676956593
 10
878.8613419360727
 20
54.92615176956593
 42
-0.9999999999999998
 10
879.0644669360727
 20
54.92615176956593
 10
879.0644669360727
 20
54.87927676956593
 10
879.1113419360726
 20
54.87927676956593
 42
-0.9999999999999998
 10
879.1113419360726
 20
54.67615176956592
 10
879.0644669360727
 20
54.67615176956592
 10
879.0644669360727
 20
54.62927676956592
 42
-0.9999999999999998
  0
LWPOLYLINE
  5
18AFE
330
1F
100
AcDbEntity
  8
0
100
AcDbPolyline
 90
       12
 70
     1
 43
0.0
 10
878.8613419360727
 20
55.67615176956593
 10
878.8613419360727
 20
55.62927676956593
 10
878.8144669360727
 20
55.62927676956593
 42
0.9999999999999998
 10
878.8144669360727
 20
55.42615176956593
 10
878.8613419360727
 20
55.42615176956593
 10
878.8613419360727
 20
55.37927676956592
 42
0.9999999999999998
 10
879.0644669360727
 20
55.37927676956592
 10
879.0644669360727
 20
55.42615176956593
 10
879.1113419360726
 20
55.42615176956593
 42
0.9999999999999998
 10
879.1113419360726
 20
55.62927676956593
 10
879.0644669360727
 20
55.62927676956593
 10
879.0644669360727
 20
55.67615176956593
 42
0.9999999999999998
  0
LWPOLYLINE
  5
18AFF
330
1F
100
AcDbEntity
  8
0
100
AcDbPolyline
 90
       12
 70
     1
 43
0.0
 10
879.6113419360727
 20
55.67615176956593
 10
879.6113419360727
 20
55.62927676956593
 10
879.5644669360727
 20
55.62927676956593
 42
0.9999999999999998
 10
879.5644669360727
 20
55.42615176956593
 10
879.6113419360727
 20
55.42615176956593
 10
879.6113419360727
 20
55.37927676956592
 42
0.9999999999999998
 10
879.8144669360727
 20
55.37927676956592
 10
879.8144669360727
 20
55.42615176956593
 10
879.8613419360727
 20
55.42615176956593
 42
0.9999999999999998
 10
879.8613419360727
 20
55.62927676956593
 10
879.8144669360727
 20
55.62927676956593
 10
879.8144669360727
 20
55.67615176956593
 42
0.9999999999999998
  0
LWPOLYLINE
  5
18B00
330
1F
100
AcDbEntity
  8
0
100
AcDbPolyline
 90
       12
 70
     1
 43
0.0
 10
880.3613419360727
 20
55.67615176956593
 10
880.3613419360727
 20
55.62927676956593
 10
880.314466936073
 20
55.62927676956593
 42
0.9999999999999998
 10
880.314466936073
 20
55.42615176956593
 10
880.3613419360727
 20
55.42615176956593
 10
880.3613419360727
 20
55.37927676956592
 42
0.9999999999999998
 10
880.5644669360727
 20
55.37927676956592
 10
880.5644669360727
 20
55.42615176956593
 10
880.6113419360727
 20
55.42615176956593
 42
0.9999999999999998
 10
880.6113419360727
 20
55.62927676956593
 10
880.5644669360727
 20
55.62927676956593
 10
880.5644669360727
 20
55.67615176956593
 42
0.9999999999999998
  0
LWPOLYLINE
  5
18B01
330
1F
100
AcDbEntity
  8
0
100
AcDbPolyline
 90
       12
 70
     1
 43
0.0
 10
882.064466936073
 20
55.67615176956593
 10
882.064466936073
 20
55.62927676956593
 10
882.1113419360727
 20
55.62927676956593
 42
-0.9999999999999998
 10
882.1113419360727
 20
55.42615176956593
 10
882.064466936073
 20
55.42615176956593
 10
882.064466936073
 20
55.37927676956592
 42
-0.9999999999999998
 10
881.8613419360726
 20
55.37927676956592
 10
881.8613419360726
 20
55.42615176956593
 10
881.8144669360727
 20
55.42615176956593
 42
-0.9999999999999998
 10
881.8144669360727
 20
55.62927676956593
 10
881.8613419360726
 20
55.62927676956593
 10
881.8613419360726
 20
55.67615176956593
 42
-0.9999999999999998
  0
LWPOLYLINE
  5
18B02
330
1F
100
AcDbEntity
  8
0
100
AcDbPolyline
 90
       12
 70
     1
 43
0.0
 10
881.1113419360728
 20
55.67615176956593
 10
881.1113419360728
 20
55.62927676956593
 10
881.0644669360726
 20
55.62927676956593
 42
0.9999999999999998
 10
881.0644669360726
 20
55.42615176956593
 10
881.1113419360728
 20
55.42615176956593
 10
881.1113419360728
 20
55.37927676956592
 42
0.9999999999999998
 10
881.3144669360728
 20
55.37927676956592
 10
881.3144669360728
 20
55.42615176956593
 10
881.3613419360727
 20
55.42615176956593
 42
0.9999999999999998
 10
881.3613419360727
 20
55.62927676956593
 10
881.3144669360728
 20
55.62927676956593
 10
881.3144669360728
 20
55.67615176956593
 42
0.9999999999999998
  0
LWPOLYLINE
  5
18B03
330
1F
100
AcDbEntity
  8
0
100
AcDbPolyline
 90
       12
 70
     1
 43
0.0
 10
881.111314448033
 20
52.67378898466444
 10
881.111314448033
 20
52.62691398466444
 10
881.064439448033
 20
52.62691398466444
 42
0.9999999999999998
 10
881.064439448033
 20
52.42378898466444
 10
881.111314448033
 20
52.42378898466444
 10
881.111314448033
 20
52.37691398466444
 42
0.9999999999999998
 10
881.314439448033
 20
52.37691398466444
 10
881.314439448033
 20
52.42378898466444
 10
881.3613144480331
 20
52.42378898466444
 42
0.9999999999999998
 10
881.3613144480331
 20
52.62691398466444
 10
881.314439448033
 20
52.62691398466444
 10
881.314439448033
 20
52.67378898466444
 42
0.9999999999999998
  0
LWPOLYLINE
  5
18B04
330
1F
100
AcDbEntity
  8
0
100
AcDbPolyline
 90
       12
 70
     1
 43
0.0
 10
882.064439448033
 20
52.67378898466444
 10
882.064439448033
 20
52.62691398466444
 10
882.1113144480333
 20
52.62691398466444
 42
-0.9999999999999998
 10
882.1113144480333
 20
52.42378898466444
 10
882.064439448033
 20
52.42378898466444
 10
882.064439448033
 20
52.37691398466444
 42
-0.9999999999999998
 10
881.861314448033
 20
52.37691398466444
 10
881.861314448033
 20
52.42378898466444
 10
881.8144394480331
 20
52.42378898466444
 42
-0.9999999999999998
 10
881.8144394480331
 20
52.62691398466444
 10
881.861314448033
 20
52.62691398466444
 10
881.861314448033
 20
52.67378898466444
 42
-0.9999999999999998
  0
LWPOLYLINE
  5
18B05
330
1F
100
AcDbEntity
  8
0
100
AcDbPolyline
 90
       12
 70
     1
 43
0.0
 10
880.3613144480333
 20
52.67378898466444
 10
880.3613144480333
 20
52.62691398466444
 10
880.314439448033
 20
52.62691398466444
 42
0.9999999999999998
 10
880.314439448033
 20
52.42378898466444
 10
880.3613144480333
 20
52.42378898466444
 10
880.3613144480333
 20
52.37691398466444
 42
0.9999999999999998
 10
880.5644394480331
 20
52.37691398466444
 10
880.5644394480331
 20
52.42378898466444
 10
880.6113144480331
 20
52.42378898466444
 42
0.9999999999999998
 10
880.6113144480331
 20
52.62691398466444
 10
880.5644394480331
 20
52.62691398466444
 10
880.5644394480331
 20
52.67378898466444
 42
0.9999999999999998
  0
LWPOLYLINE
  5
18B06
330
1F
100
AcDbEntity
  8
0
100
AcDbPolyline
 90
       12
 70
     1
 43
0.0
 10
879.6113144480331
 20
52.67378898466444
 10
879.6113144480331
 20
52.62691398466444
 10
879.5644394480333
 20
52.62691398466444
 42
0.9999999999999998
 10
879.5644394480333
 20
52.42378898466444
 10
879.6113144480331
 20
52.42378898466444
 10
879.6113144480331
 20
52.37691398466444
 42
0.9999999999999998
 10
879.8144394480331
 20
52.37691398466444
 10
879.8144394480331
 20
52.42378898466444
 10
879.8613144480331
 20
52.42378898466444
 42
0.9999999999999998
 10
879.8613144480331
 20
52.62691398466444
 10
879.8144394480331
 20
52.62691398466444
 10
879.8144394480331
 20
52.67378898466444
 42
0.9999999999999998
  0
LWPOLYLINE
  5
18B07
330
1F
100
AcDbEntity
  8
0
100
AcDbPolyline
 90
       12
 70
     1
 43
0.0
 10
878.8613144480331
 20
52.67378898466444
 10
878.8613144480331
 20
52.62691398466444
 10
878.8144394480331
 20
52.62691398466444
 42
0.9999999999999998
 10
878.8144394480331
 20
52.42378898466444
 10
878.8613144480331
 20
52.42378898466444
 10
878.8613144480331
 20
52.37691398466444
 42
0.9999999999999998
 10
879.0644394480331
 20
52.37691398466444
 10
879.0644394480331
 20
52.42378898466444
 10
879.111314448033
 20
52.42378898466444
 42
0.9999999999999998
 10
879.111314448033
 20
52.62691398466444
 10
879.0644394480331
 20
52.62691398466444
 10
879.0644394480331
 20
52.67378898466444
 42
0.9999999999999998
  0
LWPOLYLINE
  5
18B08
330
1F
100
AcDbEntity
  8
0
100
AcDbPolyline
 90
       12
 70
     1
 43
0.0
 10
878.8613144480331
 20
51.62691398466444
 10
878.8613144480331
 20
51.67378898466444
 10
878.8144394480331
 20
51.67378898466444
 42
-0.9999999999999998
 10
878.8144394480331
 20
51.87691398466444
 10
878.8613144480331
 20
51.87691398466444
 10
878.8613144480331
 20
51.92378898466444
 42
-0.9999999999999998
 10
879.0644394480331
 20
51.92378898466444
 10
879.0644394480331
 20
51.87691398466444
 10
879.111314448033
 20
51.87691398466444
 42
-0.9999999999999998
 10
879.111314448033
 20
51.67378898466444
 10
879.0644394480331
 20
51.67378898466444
 10
879.0644394480331
 20
51.62691398466444
 42
-0.9999999999999998
  0
LWPOLYLINE
  5
18B09
330
1F
100
AcDbEntity
  8
0
100
AcDbPolyline
 90
       12
 70
     1
 43
0.0
 10
879.6113144480331
 20
51.62691398466444
 10
879.6113144480331
 20
51.67378898466444
 10
879.5644394480333
 20
51.67378898466444
 42
-0.9999999999999998
 10
879.5644394480333
 20
51.87691398466444
 10
879.6113144480331
 20
51.87691398466444
 10
879.6113144480331
 20
51.92378898466444
 42
-0.9999999999999998
 10
879.8144394480331
 20
51.92378898466444
 10
879.8144394480331
 20
51.87691398466444
 10
879.8613144480331
 20
51.87691398466444
 42
-0.9999999999999998
 10
879.8613144480331
 20
51.67378898466444
 10
879.8144394480331
 20
51.67378898466444
 10
879.8144394480331
 20
51.62691398466444
 42
-0.9999999999999998
  0
LWPOLYLINE
  5
18B0A
330
1F
100
AcDbEntity
  8
0
100
AcDbPolyline
 90
       12
 70
     1
 43
0.0
 10
880.3613144480333
 20
51.62691398466444
 10
880.3613144480333
 20
51.67378898466444
 10
880.314439448033
 20
51.67378898466444
 42
-0.9999999999999998
 10
880.314439448033
 20
51.87691398466444
 10
880.3613144480333
 20
51.87691398466444
 10
880.3613144480333
 20
51.92378898466444
 42
-0.9999999999999998
 10
880.5644394480331
 20
51.92378898466444
 10
880.5644394480331
 20
51.87691398466444
 10
880.6113144480331
 20
51.87691398466444
 42
-0.9999999999999998
 10
880.6113144480331
 20
51.67378898466444
 10
880.5644394480331
 20
51.67378898466444
 10
880.5644394480331
 20
51.62691398466444
 42
-0.9999999999999998
  0
LWPOLYLINE
  5
18B0B
330
1F
100
AcDbEntity
  8
0
100
AcDbPolyline
 90
       12
 70
     1
 43
0.0
 10
879.4394394480331
 20
52.00191398466444
 10
879.4394394480331
 20
52.04878898466444
 10
879.4863144480331
 20
52.04878898466444
 42
0.9999999999999998
 10
879.4863144480331
 20
52.25191398466444
 10
879.4394394480331
 20
52.25191398466444
 10
879.4394394480331
 20
52.29878898466444
 42
0.9999999999999998
 10
879.2363144480331
 20
52.29878898466444
 10
879.2363144480331
 20
52.25191398466444
 10
879.1894394480333
 20
52.25191398466444
 42
0.9999999999999998
 10
879.1894394480333
 20
52.04878898466444
 10
879.2363144480331
 20
52.04878898466444
 10
879.2363144480331
 20
52.00191398466444
 42
0.9999999999999998
  0
LWPOLYLINE
  5
18B0C
330
1F
100
AcDbEntity
  8
0
100
AcDbPolyline
 90
       12
 70
     1
 43
0.0
 10
880.1894394480331
 20
52.00191398466444
 10
880.1894394480331
 20
52.04878898466444
 10
880.2363144480331
 20
52.04878898466444
 42
0.9999999999999998
 10
880.2363144480331
 20
52.25191398466444
 10
880.1894394480331
 20
52.25191398466444
 10
880.1894394480331
 20
52.29878898466444
 42
0.9999999999999998
 10
879.9863144480331
 20
52.29878898466444
 10
879.9863144480331
 20
52.25191398466444
 10
879.939439448033
 20
52.25191398466444
 42
0.9999999999999998
 10
879.939439448033
 20
52.04878898466444
 10
879.9863144480331
 20
52.04878898466444
 10
879.9863144480331
 20
52.00191398466444
 42
0.9999999999999998
  0
LWPOLYLINE
  5
18B0D
330
1F
100
AcDbEntity
  8
0
100
AcDbPolyline
 90
       12
 70
     1
 43
0.0
 10
880.9394394480333
 20
52.00191398466444
 10
880.9394394480333
 20
52.04878898466444
 10
880.9863144480331
 20
52.04878898466444
 42
0.9999999999999998
 10
880.9863144480331
 20
52.25191398466444
 10
880.9394394480333
 20
52.25191398466444
 10
880.9394394480333
 20
52.29878898466444
 42
0.9999999999999998
 10
880.7363144480333
 20
52.29878898466444
 10
880.7363144480333
 20
52.25191398466444
 10
880.689439448033
 20
52.25191398466444
 42
0.9999999999999998
 10
880.689439448033
 20
52.04878898466444
 10
880.7363144480333
 20
52.04878898466444
 10
880.7363144480333
 20
52.00191398466444
 42
0.9999999999999998
  0
LWPOLYLINE
  5
18B0E
330
1F
100
AcDbEntity
  8
0
100
AcDbPolyline
 90
       12
 70
     1
 43
0.0
 10
881.689439448033
 20
52.00191398466444
 10
881.689439448033
 20
52.04878898466444
 10
881.7363144480331
 20
52.04878898466444
 42
0.9999999999999998
 10
881.7363144480331
 20
52.25191398466444
 10
881.689439448033
 20
52.25191398466444
 10
881.689439448033
 20
52.29878898466444
 42
0.9999999999999998
 10
881.486314448033
 20
52.29878898466444
 10
881.486314448033
 20
52.25191398466444
 10
881.4394394480331
 20
52.25191398466444
 42
0.9999999999999998
 10
881.4394394480331
 20
52.04878898466444
 10
881.486314448033
 20
52.04878898466444
 10
881.486314448033
 20
52.00191398466444
 42
0.9999999999999998
  0
LWPOLYLINE
  5
18B0F
330
1F
100
AcDbEntity
  8
0
100
AcDbPolyline
 90
       12
 70
     1
 43
0.0
 10
882.439439448033
 20
52.00191398466444
 10
882.439439448033
 20
52.04878898466444
 10
882.486314448033
 20
52.04878898466444
 42
0.9999999999999998
 10
882.486314448033
 20
52.25191398466444
 10
882.439439448033
 20
52.25191398466444
 10
882.439439448033
 20
52.29878898466444
 42
0.9999999999999998
 10
882.236314448033
 20
52.29878898466444
 10
882.236314448033
 20
52.25191398466444
 10
882.1894394480331
 20
52.25191398466444
 42
0.9999999999999998
 10
882.1894394480331
 20
52.04878898466444
 10
882.236314448033
 20
52.04878898466444
 10
882.236314448033
 20
52.00191398466444
 42
0.9999999999999998
  0
LWPOLYLINE
  5
18B10
330
1F
100
AcDbEntity
  8
0
100
AcDbPolyline
 90
       12
 70
     1
 43
0.0
 10
882.439439448033
 20
51.25191398466444
 10
882.439439448033
 20
51.29878898466444
 10
882.486314448033
 20
51.29878898466444
 42
0.9999999999999998
 10
882.486314448033
 20
51.50191398466444
 10
882.439439448033
 20
51.50191398466444
 10
882.439439448033
 20
51.54878898466444
 42
0.9999999999999998
 10
882.236314448033
 20
51.54878898466444
 10
882.236314448033
 20
51.50191398466444
 10
882.1894394480331
 20
51.50191398466444
 42
0.9999999999999998
 10
882.1894394480331
 20
51.29878898466444
 10
882.236314448033
 20
51.29878898466444
 10
882.236314448033
 20
51.25191398466444
 42
0.9999999999999998
  0
LWPOLYLINE
  5
18B11
330
1F
100
AcDbEntity
  8
0
100
AcDbPolyline
 90
       12
 70
     1
 43
0.0
 10
881.689439448033
 20
51.25191398466444
 10
881.689439448033
 20
51.29878898466444
 10
881.7363144480331
 20
51.29878898466444
 42
0.9999999999999998
 10
881.7363144480331
 20
51.50191398466444
 10
881.689439448033
 20
51.50191398466444
 10
881.689439448033
 20
51.54878898466444
 42
0.9999999999999998
 10
881.486314448033
 20
51.54878898466444
 10
881.486314448033
 20
51.50191398466444
 10
881.4394394480331
 20
51.50191398466444
 42
0.9999999999999998
 10
881.4394394480331
 20
51.29878898466444
 10
881.486314448033
 20
51.29878898466444
 10
881.486314448033
 20
51.25191398466444
 42
0.9999999999999998
  0
LWPOLYLINE
  5
18B12
330
1F
100
AcDbEntity
  8
0
100
AcDbPolyline
 90
       12
 70
     1
 43
0.0
 10
880.9394394480333
 20
51.25191398466444
 10
880.9394394480333
 20
51.29878898466444
 10
880.9863144480331
 20
51.29878898466444
 42
0.9999999999999998
 10
880.9863144480331
 20
51.50191398466444
 10
880.9394394480333
 20
51.50191398466444
 10
880.9394394480333
 20
51.54878898466444
 42
0.9999999999999998
 10
880.7363144480333
 20
51.54878898466444
 10
880.7363144480333
 20
51.50191398466444
 10
880.689439448033
 20
51.50191398466444
 42
0.9999999999999998
 10
880.689439448033
 20
51.29878898466444
 10
880.7363144480333
 20
51.29878898466444
 10
880.7363144480333
 20
51.25191398466444
 42
0.9999999999999998
  0
LWPOLYLINE
  5
18B13
330
1F
100
AcDbEntity
  8
0
100
AcDbPolyline
 90
       12
 70
     1
 43
0.0
 10
880.1894394480331
 20
51.25191398466444
 10
880.1894394480331
 20
51.29878898466444
 10
880.2363144480331
 20
51.29878898466444
 42
0.9999999999999998
 10
880.2363144480331
 20
51.50191398466444
 10
880.1894394480331
 20
51.50191398466444
 10
880.1894394480331
 20
51.54878898466444
 42
0.9999999999999998
 10
879.9863144480331
 20
51.54878898466444
 10
879.9863144480331
 20
51.50191398466444
 10
879.939439448033
 20
51.50191398466444
 42
0.9999999999999998
 10
879.939439448033
 20
51.29878898466444
 10
879.9863144480331
 20
51.29878898466444
 10
879.9863144480331
 20
51.25191398466444
 42
0.9999999999999998
  0
LWPOLYLINE
  5
18B14
330
1F
100
AcDbEntity
  8
0
100
AcDbPolyline
 90
       12
 70
     1
 43
0.0
 10
879.4394394480331
 20
51.25191398466444
 10
879.4394394480331
 20
51.29878898466444
 10
879.4863144480331
 20
51.29878898466444
 42
0.9999999999999998
 10
879.4863144480331
 20
51.50191398466444
 10
879.4394394480331
 20
51.50191398466444
 10
879.4394394480331
 20
51.54878898466444
 42
0.9999999999999998
 10
879.2363144480331
 20
51.54878898466444
 10
879.2363144480331
 20
51.50191398466444
 10
879.1894394480333
 20
51.50191398466444
 42
0.9999999999999998
 10
879.1894394480333
 20
51.29878898466444
 10
879.2363144480331
 20
51.29878898466444
 10
879.2363144480331
 20
51.25191398466444
 42
0.9999999999999998
  0
LWPOLYLINE
  5
18B15
330
1F
100
AcDbEntity
  8
0
100
AcDbPolyline
 90
       12
 70
     1
 43
0.0
 10
882.064439448033
 20
51.62691398466444
 10
882.064439448033
 20
51.67378898466444
 10
882.1113144480333
 20
51.67378898466444
 42
0.9999999999999998
 10
882.1113144480333
 20
51.87691398466444
 10
882.064439448033
 20
51.87691398466444
 10
882.064439448033
 20
51.92378898466444
 42
0.9999999999999998
 10
881.861314448033
 20
51.92378898466444
 10
881.861314448033
 20
51.87691398466444
 10
881.8144394480331
 20
51.87691398466444
 42
0.9999999999999998
 10
881.8144394480331
 20
51.67378898466444
 10
881.861314448033
 20
51.67378898466444
 10
881.861314448033
 20
51.62691398466444
 42
0.9999999999999998
  0
LWPOLYLINE
  5
18B16
330
1F
100
AcDbEntity
  8
0
100
AcDbPolyline
 90
       12
 70
     1
 43
0.0
 10
881.111314448033
 20
51.62691398466444
 10
881.111314448033
 20
51.67378898466444
 10
881.064439448033
 20
51.67378898466444
 42
-0.9999999999999998
 10
881.064439448033
 20
51.87691398466444
 10
881.111314448033
 20
51.87691398466444
 10
881.111314448033
 20
51.92378898466444
 42
-0.9999999999999998
 10
881.314439448033
 20
51.92378898466444
 10
881.314439448033
 20
51.87691398466444
 10
881.3613144480331
 20
51.87691398466444
 42
-0.9999999999999998
 10
881.3613144480331
 20
51.67378898466444
 10
881.314439448033
 20
51.67378898466444
 10
881.314439448033
 20
51.62691398466444
 42
-0.9999999999999998
  0
LWPOLYLINE
  5
18B17
330
1F
100
AcDbEntity
  8
0
100
AcDbPolyline
 90
       12
 70
     1
 43
0.0
 10
878.6894394480331
 20
52.00191398466444
 10
878.6894394480331
 20
52.04878898466444
 10
878.736314448033
 20
52.04878898466444
 42
0.9999999999999998
 10
878.736314448033
 20
52.25191398466444
 10
878.6894394480331
 20
52.25191398466444
 10
878.6894394480331
 20
52.29878898466444
 42
0.9999999999999998
 10
878.4863144480331
 20
52.29878898466444
 10
878.4863144480331
 20
52.25191398466444
 10
878.4394394480331
 20
52.25191398466444
 42
0.9999999999999998
 10
878.4394394480331
 20
52.04878898466444
 10
878.4863144480331
 20
52.04878898466444
 10
878.4863144480331
 20
52.00191398466444
 42
0.9999999999999998
  0
LWPOLYLINE
  5
18B18
330
1F
100
AcDbEntity
  8
0
100
AcDbPolyline
 90
       12
 70
     1
 43
0.0
 10
878.6894394480331
 20
51.25191398466444
 10
878.6894394480331
 20
51.29878898466444
 10
878.736314448033
 20
51.29878898466444
 42
0.9999999999999998
 10
878.736314448033
 20
51.50191398466444
 10
878.6894394480331
 20
51.50191398466444
 10
878.6894394480331
 20
51.54878898466444
 42
0.9999999999999998
 10
878.4863144480331
 20
51.54878898466444
 10
878.4863144480331
 20
51.50191398466444
 10
878.4394394480331
 20
51.50191398466444
 42
0.9999999999999998
 10
878.4394394480331
 20
51.29878898466444
 10
878.4863144480331
 20
51.29878898466444
 10
878.4863144480331
 20
51.25191398466444
 42
0.9999999999999998
  0
LWPOLYLINE
  5
18B25
330
1F
100
AcDbEntity
  8
0
100
AcDbPolyline
 90
       12
 70
     1
 43
0.0
 10
883.5644394480331
 20
51.62691398466444
 10
883.5644394480331
 20
51.67378898466444
 10
883.611314448033
 20
51.67378898466444
 42
0.9999999999999998
 10
883.611314448033
 20
51.87691398466444
 10
883.5644394480331
 20
51.87691398466444
 10
883.5644394480331
 20
51.92378898466444
 42
0.9999999999999998
 10
883.3613144480331
 20
51.92378898466444
 10
883.3613144480331
 20
51.87691398466444
 10
883.3144394480331
 20
51.87691398466444
 42
0.9999999999999998
 10
883.3144394480331
 20
51.67378898466444
 10
883.3613144480331
 20
51.67378898466444
 10
883.3613144480331
 20
51.62691398466444
 42
0.9999999999999998
  0
LWPOLYLINE
  5
18B26
330
1F
100
AcDbEntity
  8
0
100
AcDbPolyline
 90
       12
 70
     1
 43
0.0
 10
883.1894394480331
 20
51.25191398466444
 10
883.1894394480331
 20
51.29878898466444
 10
883.236314448033
 20
51.29878898466444
 42
0.9999999999999998
 10
883.236314448033
 20
51.50191398466444
 10
883.1894394480331
 20
51.50191398466444
 10
883.1894394480331
 20
51.54878898466444
 42
0.9999999999999998
 10
882.9863144480331
 20
51.54878898466444
 10
882.9863144480331
 20
51.50191398466444
 10
882.9394394480331
 20
51.50191398466444
 42
0.9999999999999998
 10
882.9394394480331
 20
51.29878898466444
 10
882.9863144480331
 20
51.29878898466444
 10
882.9863144480331
 20
51.25191398466444
 42
0.9999999999999998
  0
LWPOLYLINE
  5
18B27
330
1F
100
AcDbEntity
  8
0
100
AcDbPolyline
 90
       12
 70
     1
 43
0.0
 10
883.9394394480331
 20
51.25191398466444
 10
883.9394394480329
 20
51.29878898466444
 10
883.9863144480331
 20
51.29878898466444
 42
0.9999999999999998
 10
883.9863144480331
 20
51.50191398466444
 10
883.9394394480329
 20
51.50191398466444
 10
883.9394394480331
 20
51.54878898466444
 42
0.9999999999999998
 10
883.7363144480331
 20
51.54878898466444
 10
883.7363144480331
 20
51.50191398466444
 10
883.6894394480331
 20
51.50191398466444
 42
0.9999999999999998
 10
883.6894394480331
 20
51.29878898466444
 10
883.7363144480331
 20
51.29878898466444
 10
883.7363144480331
 20
51.25191398466444
 42
0.9999999999999998
  0
LWPOLYLINE
  5
18B28
330
1F
100
AcDbEntity
  8
0
100
AcDbPolyline
 90
       12
 70
     1
 43
0.0
 10
883.9394394480331
 20
52.00191398466444
 10
883.9394394480329
 20
52.04878898466444
 10
883.9863144480331
 20
52.04878898466444
 42
0.9999999999999998
 10
883.9863144480331
 20
52.25191398466444
 10
883.9394394480329
 20
52.25191398466444
 10
883.9394394480331
 20
52.29878898466444
 42
0.9999999999999998
 10
883.7363144480331
 20
52.29878898466444
 10
883.7363144480331
 20
52.25191398466444
 10
883.6894394480331
 20
52.25191398466444
 42
0.9999999999999998
 10
883.6894394480331
 20
52.04878898466444
 10
883.7363144480331
 20
52.04878898466444
 10
883.7363144480331
 20
52.00191398466444
 42
0.9999999999999998
  0
LWPOLYLINE
  5
18B29
330
1F
100
AcDbEntity
  8
0
100
AcDbPolyline
 90
       12
 70
     1
 43
0.0
 10
883.1894394480331
 20
52.00191398466444
 10
883.1894394480331
 20
52.04878898466444
 10
883.236314448033
 20
52.04878898466444
 42
0.9999999999999998
 10
883.236314448033
 20
52.25191398466444
 10
883.1894394480331
 20
52.25191398466444
 10
883.1894394480331
 20
52.29878898466444
 42
0.9999999999999998
 10
882.9863144480331
 20
52.29878898466444
 10
882.9863144480331
 20
52.25191398466444
 10
882.9394394480331
 20
52.25191398466444
 42
0.9999999999999998
 10
882.9394394480331
 20
52.04878898466444
 10
882.9863144480331
 20
52.04878898466444
 10
882.9863144480331
 20
52.00191398466444
 42
0.9999999999999998
  0
LWPOLYLINE
  5
18B2A
330
1F
100
AcDbEntity
  8
0
100
AcDbPolyline
 90
       12
 70
     1
 43
0.0
 10
883.5644394480331
 20
52.67378898466444
 10
883.5644394480331
 20
52.62691398466444
 10
883.611314448033
 20
52.62691398466444
 42
-0.9999999999999998
 10
883.611314448033
 20
52.42378898466444
 10
883.5644394480331
 20
52.42378898466444
 10
883.5644394480331
 20
52.37691398466444
 42
-0.9999999999999998
 10
883.3613144480331
 20
52.37691398466444
 10
883.3613144480331
 20
52.42378898466444
 10
883.3144394480331
 20
52.42378898466444
 42
-0.9999999999999998
 10
883.3144394480331
 20
52.62691398466444
 10
883.3613144480331
 20
52.62691398466444
 10
883.3613144480331
 20
52.67378898466444
 42
-0.9999999999999998
  0
LWPOLYLINE
  5
18B2B
330
1F
100
AcDbEntity
  8
0
100
AcDbPolyline
 90
       12
 70
     1
 43
0.0
 10
883.5644669360727
 20
55.67615176956593
 10
883.5644669360727
 20
55.62927676956593
 10
883.6113419360726
 20
55.62927676956593
 42
-0.9999999999999998
 10
883.6113419360726
 20
55.42615176956593
 10
883.5644669360727
 20
55.42615176956593
 10
883.5644669360727
 20
55.37927676956592
 42
-0.9999999999999998
 10
883.3613419360727
 20
55.37927676956592
 10
883.3613419360727
 20
55.42615176956593
 10
883.3144669360727
 20
55.42615176956593
 42
-0.9999999999999998
 10
883.3144669360727
 20
55.62927676956593
 10
883.3613419360727
 20
55.62927676956593
 10
883.3613419360727
 20
55.67615176956593
 42
-0.9999999999999998
  0
LWPOLYLINE
  5
18B2C
330
1F
100
AcDbEntity
  8
0
100
AcDbPolyline
 90
       12
 70
     1
 43
0.0
 10
883.5644669360727
 20
54.62927676956592
 10
883.5644669360727
 20
54.67615176956592
 10
883.6113419360726
 20
54.67615176956592
 42
0.9999999999999998
 10
883.6113419360726
 20
54.87927676956593
 10
883.5644669360727
 20
54.87927676956593
 10
883.5644669360727
 20
54.92615176956593
 42
0.9999999999999998
 10
883.3613419360727
 20
54.92615176956593
 10
883.3613419360727
 20
54.87927676956593
 10
883.3144669360727
 20
54.87927676956593
 42
0.9999999999999998
 10
883.3144669360727
 20
54.67615176956592
 10
883.3613419360727
 20
54.67615176956592
 10
883.3613419360727
 20
54.62927676956592
 42
0.9999999999999998
  0
LWPOLYLINE
  5
18B2D
330
1F
100
AcDbEntity
  8
0
100
AcDbPolyline
 90
       12
 70
     1
 43
0.0
 10
883.5644669360727
 20
54.17615176956593
 10
883.5644669360727
 20
54.12927676956592
 10
883.6113419360726
 20
54.12927676956592
 42
-0.9999999999999998
 10
883.6113419360726
 20
53.92615176956592
 10
883.5644669360727
 20
53.92615176956592
 10
883.5644669360727
 20
53.87927676956593
 42
-0.9999999999999998
 10
883.3613419360727
 20
53.87927676956593
 10
883.3613419360727
 20
53.92615176956592
 10
883.3144669360727
 20
53.92615176956592
 42
-0.9999999999999998
 10
883.3144669360727
 20
54.12927676956592
 10
883.3613419360727
 20
54.12927676956592
 10
883.3613419360727
 20
54.17615176956593
 42
-0.9999999999999998
  0
LWPOLYLINE
  5
18B2E
330
1F
100
AcDbEntity
  8
0
100
AcDbPolyline
 90
       12
 70
     1
 43
0.0
 10
883.1894669360726
 20
53.50427676956592
 10
883.1894669360726
 20
53.55115176956593
 10
883.236341936073
 20
53.55115176956593
 42
0.9999999999999998
 10
883.236341936073
 20
53.75427676956593
 10
883.1894669360726
 20
53.75427676956593
 10
883.1894669360726
 20
53.80115176956593
 42
0.9999999999999998
 10
882.9863419360727
 20
53.80115176956593
 10
882.9863419360727
 20
53.75427676956593
 10
882.9394669360727
 20
53.75427676956593
 42
0.9999999999999998
 10
882.9394669360727
 20
53.55115176956593
 10
882.9863419360727
 20
53.55115176956593
 10
882.9863419360727
 20
53.50427676956592
 42
0.9999999999999998
  0
LWPOLYLINE
  5
18B2F
330
1F
100
AcDbEntity
  8
0
100
AcDbPolyline
 90
       12
 70
     1
 43
0.0
 10
883.9394669360727
 20
53.50427676956592
 10
883.9394669360727
 20
53.55115176956593
 10
883.9863419360726
 20
53.55115176956593
 42
0.9999999999999998
 10
883.9863419360726
 20
53.75427676956593
 10
883.9394669360727
 20
53.75427676956593
 10
883.9394669360727
 20
53.80115176956593
 42
0.9999999999999998
 10
883.7363419360727
 20
53.80115176956593
 10
883.7363419360727
 20
53.75427676956593
 10
883.6894669360727
 20
53.75427676956593
 42
0.9999999999999998
 10
883.6894669360727
 20
53.55115176956593
 10
883.7363419360727
 20
53.55115176956593
 10
883.7363419360727
 20
53.50427676956592
 42
0.9999999999999998
  0
LWPOLYLINE
  5
18B30
330
1F
100
AcDbEntity
  8
0
100
AcDbPolyline
 90
       12
 70
     1
 43
0.0
 10
883.1894669360726
 20
54.25427676956593
 10
883.1894669360726
 20
54.30115176956593
 10
883.236341936073
 20
54.30115176956593
 42
0.9999999999999998
 10
883.236341936073
 20
54.50427676956593
 10
883.1894669360726
 20
54.50427676956593
 10
883.1894669360726
 20
54.55115176956592
 42
0.9999999999999998
 10
882.9863419360727
 20
54.55115176956592
 10
882.9863419360727
 20
54.50427676956593
 10
882.9394669360727
 20
54.50427676956593
 42
0.9999999999999998
 10
882.9394669360727
 20
54.30115176956593
 10
882.9863419360727
 20
54.30115176956593
 10
882.9863419360727
 20
54.25427676956593
 42
0.9999999999999998
  0
LWPOLYLINE
  5
18B31
330
1F
100
AcDbEntity
  8
0
100
AcDbPolyline
 90
       12
 70
     1
 43
0.0
 10
883.9394669360727
 20
54.25427676956593
 10
883.9394669360727
 20
54.30115176956593
 10
883.9863419360726
 20
54.30115176956593
 42
0.9999999999999998
 10
883.9863419360726
 20
54.50427676956593
 10
883.9394669360727
 20
54.50427676956593
 10
883.9394669360727
 20
54.55115176956592
 42
0.9999999999999998
 10
883.7363419360727
 20
54.55115176956592
 10
883.7363419360727
 20
54.50427676956593
 10
883.6894669360727
 20
54.50427676956593
 42
0.9999999999999998
 10
883.6894669360727
 20
54.30115176956593
 10
883.7363419360727
 20
54.30115176956593
 10
883.7363419360727
 20
54.25427676956593
 42
0.9999999999999998
  0
LWPOLYLINE
  5
18B32
330
1F
100
AcDbEntity
  8
0
100
AcDbPolyline
 90
       12
 70
     1
 43
0.0
 10
883.1894669360726
 20
55.00427676956593
 10
883.1894669360726
 20
55.05115176956593
 10
883.236341936073
 20
55.05115176956593
 42
0.9999999999999998
 10
883.236341936073
 20
55.25427676956592
 10
883.1894669360726
 20
55.25427676956592
 10
883.1894669360726
 20
55.30115176956592
 42
0.9999999999999998
 10
882.9863419360727
 20
55.30115176956592
 10
882.9863419360727
 20
55.25427676956592
 10
882.9394669360727
 20
55.25427676956592
 42
0.9999999999999998
 10
882.9394669360727
 20
55.05115176956593
 10
882.9863419360727
 20
55.05115176956593
 10
882.9863419360727
 20
55.00427676956593
 42
0.9999999999999998
  0
LWPOLYLINE
  5
18B33
330
1F
100
AcDbEntity
  8
0
100
AcDbPolyline
 90
       12
 70
     1
 43
0.0
 10
883.9394669360727
 20
55.00427676956593
 10
883.9394669360727
 20
55.05115176956593
 10
883.9863419360726
 20
55.05115176956593
 42
0.9999999999999998
 10
883.9863419360726
 20
55.25427676956592
 10
883.9394669360727
 20
55.25427676956592
 10
883.9394669360727
 20
55.30115176956592
 42
0.9999999999999998
 10
883.7363419360727
 20
55.30115176956592
 10
883.7363419360727
 20
55.25427676956592
 10
883.6894669360727
 20
55.25427676956592
 42
0.9999999999999998
 10
883.6894669360727
 20
55.05115176956593
 10
883.7363419360727
 20
55.05115176956593
 10
883.7363419360727
 20
55.00427676956593
 42
0.9999999999999998
  0
LWPOLYLINE
  5
18B34
330
1F
100
AcDbEntity
  8
0
100
AcDbPolyline
 90
       12
 70
     1
 43
0.0
 10
883.9394669360727
 20
55.75427676956593
 10
883.9394669360727
 20
55.80115176956592
 10
883.9863419360726
 20
55.80115176956592
 42
0.9999999999999998
 10
883.9863419360726
 20
56.00427676956592
 10
883.9394669360727
 20
56.00427676956592
 10
883.9394669360727
 20
56.05115176956593
 42
0.9999999999999998
 10
883.7363419360727
 20
56.05115176956593
 10
883.7363419360727
 20
56.00427676956592
 10
883.6894669360727
 20
56.00427676956592
 42
0.9999999999999998
 10
883.6894669360727
 20
55.80115176956592
 10
883.7363419360727
 20
55.80115176956592
 10
883.7363419360727
 20
55.75427676956593
 42
0.9999999999999998
  0
LWPOLYLINE
  5
18B35
330
1F
100
AcDbEntity
  8
0
100
AcDbPolyline
 90
       12
 70
     1
 43
0.0
 10
883.1894669360726
 20
55.75427676956593
 10
883.1894669360726
 20
55.80115176956592
 10
883.236341936073
 20
55.80115176956592
 42
0.9999999999999998
 10
883.236341936073
 20
56.00427676956592
 10
883.1894669360726
 20
56.00427676956592
 10
883.1894669360726
 20
56.05115176956593
 42
0.9999999999999998
 10
882.9863419360727
 20
56.05115176956593
 10
882.9863419360727
 20
56.00427676956592
 10
882.9394669360727
 20
56.00427676956592
 42
0.9999999999999998
 10
882.9394669360727
 20
55.80115176956592
 10
882.9863419360727
 20
55.80115176956592
 10
882.9863419360727
 20
55.75427676956593
 42
0.9999999999999998
  0
LWPOLYLINE
  5
18B36
330
1F
100
AcDbEntity
  8
0
100
AcDbPolyline
 90
       12
 70
     1
 43
0.0
 10
883.9394669360727
 20
52.75427676956592
 10
883.9394669360727
 20
52.80115176956592
 10
883.9863419360726
 20
52.80115176956592
 42
0.9999999999999998
 10
883.9863419360726
 20
53.00427676956593
 10
883.9394669360727
 20
53.00427676956593
 10
883.9394669360727
 20
53.05115176956593
 42
0.9999999999999998
 10
883.7363419360727
 20
53.05115176956593
 10
883.7363419360727
 20
53.00427676956593
 10
883.6894669360727
 20
53.00427676956593
 42
0.9999999999999998
 10
883.6894669360727
 20
52.80115176956592
 10
883.7363419360727
 20
52.80115176956592
 10
883.7363419360727
 20
52.75427676956592
 42
0.9999999999999998
  0
LWPOLYLINE
  5
18B37
330
1F
100
AcDbEntity
  8
0
100
AcDbPolyline
 90
       12
 70
     1
 43
0.0
 10
883.1894669360726
 20
52.75427676956592
 10
883.1894669360726
 20
52.80115176956592
 10
883.236341936073
 20
52.80115176956592
 42
0.9999999999999998
 10
883.236341936073
 20
53.00427676956593
 10
883.1894669360726
 20
53.00427676956593
 10
883.1894669360726
 20
53.05115176956593
 42
0.9999999999999998
 10
882.9863419360727
 20
53.05115176956593
 10
882.9863419360727
 20
53.00427676956593
 10
882.9394669360727
 20
53.00427676956593
 42
0.9999999999999998
 10
882.9394669360727
 20
52.80115176956592
 10
882.9863419360727
 20
52.80115176956592
 10
882.9863419360727
 20
52.75427676956592
 42
0.9999999999999998
  0
LWPOLYLINE
  5
18B38
330
1F
100
AcDbEntity
  8
0
100
AcDbPolyline
 90
       12
 70
     1
 43
0.0
 10
883.5644669360727
 20
53.12927676956593
 10
883.5644669360727
 20
53.17615176956593
 10
883.6113419360726
 20
53.17615176956593
 42
0.9999999999999998
 10
883.6113419360726
 20
53.37927676956592
 10
883.5644669360727
 20
53.37927676956592
 10
883.5644669360727
 20
53.42615176956592
 42
0.9999999999999998
 10
883.3613419360727
 20
53.42615176956592
 10
883.3613419360727
 20
53.37927676956592
 10
883.3144669360727
 20
53.37927676956592
 42
0.9999999999999998
 10
883.3144669360727
 20
53.17615176956593
 10
883.3613419360727
 20
53.17615176956593
 10
883.3613419360727
 20
53.12927676956593
 42
0.9999999999999998
  0
LWPOLYLINE
  5
18B39
330
1F
100
AcDbEntity
  8
0
100
AcDbPolyline
 90
       12
 70
     1
 43
0.0
 10
882.8143106890276
 20
51.6269139030453
 10
882.8143106890276
 20
51.67378890304529
 10
882.8611856890276
 20
51.67378890304529
 42
0.9999999999999998
 10
882.8611856890276
 20
51.8769139030453
 10
882.8143106890276
 20
51.8769139030453
 10
882.8143106890276
 20
51.9237889030453
 42
0.9999999999999998
 10
882.6111856890276
 20
51.9237889030453
 10
882.6111856890276
 20
51.8769139030453
 10
882.5643106890279
 20
51.8769139030453
 42
0.9999999999999998
 10
882.5643106890279
 20
51.67378890304529
 10
882.6111856890276
 20
51.67378890304529
 10
882.6111856890276
 20
51.6269139030453
 42
0.9999999999999998
  0
LWPOLYLINE
  5
18B3A
330
1F
100
AcDbEntity
  8
0
100
AcDbPolyline
 90
       12
 70
     1
 43
0.0
 10
882.8143106890276
 20
52.6737889030453
 10
882.8143106890276
 20
52.6269139030453
 10
882.8611856890276
 20
52.6269139030453
 42
-0.9999999999999998
 10
882.8611856890276
 20
52.4237889030453
 10
882.8143106890276
 20
52.4237889030453
 10
882.8143106890276
 20
52.37691390304529
 42
-0.9999999999999998
 10
882.6111856890276
 20
52.37691390304529
 10
882.6111856890276
 20
52.4237889030453
 10
882.5643106890279
 20
52.4237889030453
 42
-0.9999999999999998
 10
882.5643106890279
 20
52.6269139030453
 10
882.6111856890276
 20
52.6269139030453
 10
882.6111856890276
 20
52.6737889030453
 42
-0.9999999999999998
  0
LWPOLYLINE
  5
18B3B
330
1F
100
AcDbEntity
  8
0
100
AcDbPolyline
 90
       12
 70
     1
 43
0.0
 10
882.8143381770676
 20
54.17615168794679
 10
882.8143381770676
 20
54.12927668794679
 10
882.8612131770675
 20
54.12927668794679
 42
-0.9999999999999998
 10
882.8612131770675
 20
53.92615168794677
 10
882.8143381770676
 20
53.92615168794677
 10
882.8143381770676
 20
53.87927668794677
 42
-0.9999999999999998
 10
882.6112131770676
 20
53.87927668794677
 10
882.6112131770676
 20
53.92615168794677
 10
882.5643381770676
 20
53.92615168794677
 42
-0.9999999999999998
 10
882.5643381770676
 20
54.12927668794679
 10
882.6112131770676
 20
54.12927668794679
 10
882.6112131770676
 20
54.17615168794679
 42
-0.9999999999999998
  0
LWPOLYLINE
  5
18B3C
330
1F
100
AcDbEntity
  8
0
100
AcDbPolyline
 90
       12
 70
     1
 43
0.0
 10
882.8143381770676
 20
53.12927668794678
 10
882.8143381770676
 20
53.17615168794677
 10
882.8612131770675
 20
53.17615168794677
 42
0.9999999999999998
 10
882.8612131770675
 20
53.37927668794677
 10
882.8143381770676
 20
53.37927668794677
 10
882.8143381770676
 20
53.42615168794679
 42
0.9999999999999998
 10
882.6112131770676
 20
53.42615168794679
 10
882.6112131770676
 20
53.37927668794677
 10
882.5643381770676
 20
53.37927668794677
 42
0.9999999999999998
 10
882.5643381770676
 20
53.17615168794677
 10
882.6112131770676
 20
53.17615168794677
 10
882.6112131770676
 20
53.12927668794678
 42
0.9999999999999998
  0
LWPOLYLINE
  5
18B3D
330
1F
100
AcDbEntity
  8
0
100
AcDbPolyline
 90
       12
 70
     1
 43
0.0
 10
882.8144669360726
 20
55.67615176956593
 10
882.8144669360726
 20
55.62927676956593
 10
882.8613419360728
 20
55.62927676956593
 42
-0.9999999999999998
 10
882.8613419360728
 20
55.42615176956593
 10
882.8144669360726
 20
55.42615176956593
 10
882.8144669360726
 20
55.37927676956592
 42
-0.9999999999999998
 10
882.6113419360726
 20
55.37927676956592
 10
882.6113419360726
 20
55.42615176956593
 10
882.5644669360727
 20
55.42615176956593
 42
-0.9999999999999998
 10
882.5644669360727
 20
55.62927676956593
 10
882.6113419360726
 20
55.62927676956593
 10
882.6113419360726
 20
55.67615176956593
 42
-0.9999999999999998
  0
LWPOLYLINE
  5
18B3E
330
1F
100
AcDbEntity
  8
0
100
AcDbPolyline
 90
       12
 70
     1
 43
0.0
 10
882.8144669360726
 20
54.62927676956592
 10
882.8144669360726
 20
54.67615176956592
 10
882.8613419360728
 20
54.67615176956592
 42
0.9999999999999998
 10
882.8613419360728
 20
54.87927676956593
 10
882.8144669360726
 20
54.87927676956593
 10
882.8144669360726
 20
54.92615176956593
 42
0.9999999999999998
 10
882.6113419360726
 20
54.92615176956593
 10
882.6113419360726
 20
54.87927676956593
 10
882.5644669360727
 20
54.87927676956593
 42
0.9999999999999998
 10
882.5644669360727
 20
54.67615176956592
 10
882.6113419360726
 20
54.67615176956592
 10
882.6113419360726
 20
54.62927676956592
 42
0.9999999999999998
  0
LWPOLYLINE
  5
18B3F
330
1F
100
AcDbEntity
  8
0
100
AcDbPolyline
 90
       12
 70
     1
 43
0.0
 10
882.8143106890276
 20
50.8769139030453
 10
882.8143106890276
 20
50.9237889030453
 10
882.8611856890276
 20
50.9237889030453
 42
0.9999999999999998
 10
882.8611856890276
 20
51.12691390304529
 10
882.8143106890276
 20
51.12691390304529
 10
882.8143106890276
 20
51.1737889030453
 42
0.9999999999999998
 10
882.6111856890276
 20
51.1737889030453
 10
882.6111856890276
 20
51.12691390304529
 10
882.5643106890279
 20
51.12691390304529
 42
0.9999999999999998
 10
882.5643106890279
 20
50.9237889030453
 10
882.6111856890276
 20
50.9237889030453
 10
882.6111856890276
 20
50.8769139030453
 42
0.9999999999999998
  0
LWPOLYLINE
  5
18B40
330
1F
100
AcDbEntity
  8
0
100
AcDbPolyline
 90
       12
 70
     1
 43
0.0
 10
883.9394394480331
 20
50.50191398466444
 10
883.9394394480329
 20
50.54878898466444
 10
883.9863144480331
 20
50.54878898466444
 42
0.9999999999999998
 10
883.9863144480331
 20
50.75191398466444
 10
883.9394394480329
 20
50.75191398466444
 10
883.9394394480331
 20
50.79878898466444
 42
0.9999999999999998
 10
883.7363144480331
 20
50.79878898466444
 10
883.7363144480331
 20
50.75191398466444
 10
883.6894394480331
 20
50.75191398466444
 42
0.9999999999999998
 10
883.6894394480331
 20
50.54878898466444
 10
883.7363144480331
 20
50.54878898466444
 10
883.7363144480331
 20
50.50191398466444
 42
0.9999999999999998
  0
LWPOLYLINE
  5
18B41
330
1F
100
AcDbEntity
  8
0
100
AcDbPolyline
 90
       12
 70
     1
 43
0.0
 10
883.1894394480331
 20
50.50191398466444
 10
883.1894394480331
 20
50.54878898466444
 10
883.236314448033
 20
50.54878898466444
 42
0.9999999999999998
 10
883.236314448033
 20
50.75191398466444
 10
883.1894394480331
 20
50.75191398466444
 10
883.1894394480331
 20
50.79878898466444
 42
0.9999999999999998
 10
882.9863144480331
 20
50.79878898466444
 10
882.9863144480331
 20
50.75191398466444
 10
882.9394394480331
 20
50.75191398466444
 42
0.9999999999999998
 10
882.9394394480331
 20
50.54878898466444
 10
882.9863144480331
 20
50.54878898466444
 10
882.9863144480331
 20
50.50191398466444
 42
0.9999999999999998
  0
LWPOLYLINE
  5
18B42
330
1F
100
AcDbEntity
  8
0
100
AcDbPolyline
 90
       12
 70
     1
 43
0.0
 10
883.5644394480331
 20
50.87691398466444
 10
883.5644394480331
 20
50.92378898466444
 10
883.611314448033
 20
50.92378898466444
 42
0.9999999999999998
 10
883.611314448033
 20
51.12691398466444
 10
883.5644394480331
 20
51.12691398466444
 10
883.5644394480331
 20
51.17378898466444
 42
0.9999999999999998
 10
883.3613144480331
 20
51.17378898466444
 10
883.3613144480331
 20
51.12691398466444
 10
883.3144394480331
 20
51.12691398466444
 42
0.9999999999999998
 10
883.3144394480331
 20
50.92378898466444
 10
883.3613144480331
 20
50.92378898466444
 10
883.3613144480331
 20
50.87691398466444
 42
0.9999999999999998
  0
LWPOLYLINE
  5
18B43
330
1F
100
AcDbEntity
  8
0
100
AcDbPolyline
 90
       12
 70
     1
 43
0.0
 10
878.6894394480331
 20
50.50191398466444
 10
878.6894394480331
 20
50.54878898466444
 10
878.736314448033
 20
50.54878898466444
 42
0.9999999999999998
 10
878.736314448033
 20
50.75191398466444
 10
878.6894394480331
 20
50.75191398466444
 10
878.6894394480331
 20
50.79878898466444
 42
0.9999999999999998
 10
878.4863144480331
 20
50.79878898466444
 10
878.4863144480331
 20
50.75191398466444
 10
878.4394394480331
 20
50.75191398466444
 42
0.9999999999999998
 10
878.4394394480331
 20
50.54878898466444
 10
878.4863144480331
 20
50.54878898466444
 10
878.4863144480331
 20
50.50191398466444
 42
0.9999999999999998
  0
LWPOLYLINE
  5
18B44
330
1F
100
AcDbEntity
  8
0
100
AcDbPolyline
 90
       12
 70
     1
 43
0.0
 10
881.111314448033
 20
50.87691398466444
 10
881.111314448033
 20
50.92378898466444
 10
881.064439448033
 20
50.92378898466444
 42
-0.9999999999999998
 10
881.064439448033
 20
51.12691398466444
 10
881.111314448033
 20
51.12691398466444
 10
881.111314448033
 20
51.17378898466444
 42
-0.9999999999999998
 10
881.314439448033
 20
51.17378898466444
 10
881.314439448033
 20
51.12691398466444
 10
881.3613144480331
 20
51.12691398466444
 42
-0.9999999999999998
 10
881.3613144480331
 20
50.92378898466444
 10
881.314439448033
 20
50.92378898466444
 10
881.314439448033
 20
50.87691398466444
 42
-0.9999999999999998
  0
LWPOLYLINE
  5
18B45
330
1F
100
AcDbEntity
  8
0
100
AcDbPolyline
 90
       12
 70
     1
 43
0.0
 10
882.064439448033
 20
50.87691398466444
 10
882.064439448033
 20
50.92378898466444
 10
882.1113144480333
 20
50.92378898466444
 42
0.9999999999999998
 10
882.1113144480333
 20
51.12691398466444
 10
882.064439448033
 20
51.12691398466444
 10
882.064439448033
 20
51.17378898466444
 42
0.9999999999999998
 10
881.861314448033
 20
51.17378898466444
 10
881.861314448033
 20
51.12691398466444
 10
881.8144394480331
 20
51.12691398466444
 42
0.9999999999999998
 10
881.8144394480331
 20
50.92378898466444
 10
881.861314448033
 20
50.92378898466444
 10
881.861314448033
 20
50.87691398466444
 42
0.9999999999999998
  0
LWPOLYLINE
  5
18B46
330
1F
100
AcDbEntity
  8
0
100
AcDbPolyline
 90
       12
 70
     1
 43
0.0
 10
879.4394394480331
 20
50.50191398466444
 10
879.4394394480331
 20
50.54878898466444
 10
879.4863144480331
 20
50.54878898466444
 42
0.9999999999999998
 10
879.4863144480331
 20
50.75191398466444
 10
879.4394394480331
 20
50.75191398466444
 10
879.4394394480331
 20
50.79878898466444
 42
0.9999999999999998
 10
879.2363144480331
 20
50.79878898466444
 10
879.2363144480331
 20
50.75191398466444
 10
879.1894394480333
 20
50.75191398466444
 42
0.9999999999999998
 10
879.1894394480333
 20
50.54878898466444
 10
879.2363144480331
 20
50.54878898466444
 10
879.2363144480331
 20
50.50191398466444
 42
0.9999999999999998
  0
LWPOLYLINE
  5
18B47
330
1F
100
AcDbEntity
  8
0
100
AcDbPolyline
 90
       12
 70
     1
 43
0.0
 10
880.1894394480331
 20
50.50191398466444
 10
880.1894394480331
 20
50.54878898466444
 10
880.2363144480331
 20
50.54878898466444
 42
0.9999999999999998
 10
880.2363144480331
 20
50.75191398466444
 10
880.1894394480331
 20
50.75191398466444
 10
880.1894394480331
 20
50.79878898466444
 42
0.9999999999999998
 10
879.9863144480331
 20
50.79878898466444
 10
879.9863144480331
 20
50.75191398466444
 10
879.939439448033
 20
50.75191398466444
 42
0.9999999999999998
 10
879.939439448033
 20
50.54878898466444
 10
879.9863144480331
 20
50.54878898466444
 10
879.9863144480331
 20
50.50191398466444
 42
0.9999999999999998
  0
LWPOLYLINE
  5
18B48
330
1F
100
AcDbEntity
  8
0
100
AcDbPolyline
 90
       12
 70
     1
 43
0.0
 10
880.9394394480333
 20
50.50191398466444
 10
880.9394394480333
 20
50.54878898466444
 10
880.9863144480331
 20
50.54878898466444
 42
0.9999999999999998
 10
880.9863144480331
 20
50.75191398466444
 10
880.9394394480333
 20
50.75191398466444
 10
880.9394394480333
 20
50.79878898466444
 42
0.9999999999999998
 10
880.7363144480333
 20
50.79878898466444
 10
880.7363144480333
 20
50.75191398466444
 10
880.689439448033
 20
50.75191398466444
 42
0.9999999999999998
 10
880.689439448033
 20
50.54878898466444
 10
880.7363144480333
 20
50.54878898466444
 10
880.7363144480333
 20
50.50191398466444
 42
0.9999999999999998
  0
LWPOLYLINE
  5
18B49
330
1F
100
AcDbEntity
  8
0
100
AcDbPolyline
 90
       12
 70
     1
 43
0.0
 10
881.689439448033
 20
50.50191398466444
 10
881.689439448033
 20
50.54878898466444
 10
881.7363144480331
 20
50.54878898466444
 42
0.9999999999999998
 10
881.7363144480331
 20
50.75191398466444
 10
881.689439448033
 20
50.75191398466444
 10
881.689439448033
 20
50.79878898466444
 42
0.9999999999999998
 10
881.486314448033
 20
50.79878898466444
 10
881.486314448033
 20
50.75191398466444
 10
881.4394394480331
 20
50.75191398466444
 42
0.9999999999999998
 10
881.4394394480331
 20
50.54878898466444
 10
881.486314448033
 20
50.54878898466444
 10
881.486314448033
 20
50.50191398466444
 42
0.9999999999999998
  0
LWPOLYLINE
  5
18B4A
330
1F
100
AcDbEntity
  8
0
100
AcDbPolyline
 90
       12
 70
     1
 43
0.0
 10
882.439439448033
 20
50.50191398466444
 10
882.439439448033
 20
50.54878898466444
 10
882.486314448033
 20
50.54878898466444
 42
0.9999999999999998
 10
882.486314448033
 20
50.75191398466444
 10
882.439439448033
 20
50.75191398466444
 10
882.439439448033
 20
50.79878898466444
 42
0.9999999999999998
 10
882.236314448033
 20
50.79878898466444
 10
882.236314448033
 20
50.75191398466444
 10
882.1894394480331
 20
50.75191398466444
 42
0.9999999999999998
 10
882.1894394480331
 20
50.54878898466444
 10
882.236314448033
 20
50.54878898466444
 10
882.236314448033
 20
50.50191398466444
 42
0.9999999999999998
  0
LWPOLYLINE
  5
18B4B
330
1F
100
AcDbEntity
  8
0
100
AcDbPolyline
 90
       12
 70
     1
 43
0.0
 10
880.3613144480333
 20
50.87691398466444
 10
880.3613144480333
 20
50.92378898466444
 10
880.314439448033
 20
50.92378898466444
 42
-0.9999999999999998
 10
880.314439448033
 20
51.12691398466444
 10
880.3613144480333
 20
51.12691398466444
 10
880.3613144480333
 20
51.17378898466444
 42
-0.9999999999999998
 10
880.5644394480331
 20
51.17378898466444
 10
880.5644394480331
 20
51.12691398466444
 10
880.6113144480331
 20
51.12691398466444
 42
-0.9999999999999998
 10
880.6113144480331
 20
50.92378898466444
 10
880.5644394480331
 20
50.92378898466444
 10
880.5644394480331
 20
50.87691398466444
 42
-0.9999999999999998
  0
LWPOLYLINE
  5
18B4C
330
1F
100
AcDbEntity
  8
0
100
AcDbPolyline
 90
       12
 70
     1
 43
0.0
 10
879.6113144480331
 20
50.87691398466444
 10
879.6113144480331
 20
50.92378898466444
 10
879.5644394480333
 20
50.92378898466444
 42
-0.9999999999999998
 10
879.5644394480333
 20
51.12691398466444
 10
879.6113144480331
 20
51.12691398466444
 10
879.6113144480331
 20
51.17378898466444
 42
-0.9999999999999998
 10
879.8144394480331
 20
51.17378898466444
 10
879.8144394480331
 20
51.12691398466444
 10
879.8613144480331
 20
51.12691398466444
 42
-0.9999999999999998
 10
879.8613144480331
 20
50.92378898466444
 10
879.8144394480331
 20
50.92378898466444
 10
879.8144394480331
 20
50.87691398466444
 42
-0.9999999999999998
  0
LWPOLYLINE
  5
18B4D
330
1F
100
AcDbEntity
  8
0
100
AcDbPolyline
 90
       12
 70
     1
 43
0.0
 10
878.8613144480331
 20
50.87691398466444
 10
878.8613144480331
 20
50.92378898466444
 10
878.8144394480331
 20
50.92378898466444
 42
-0.9999999999999998
 10
878.8144394480331
 20
51.12691398466444
 10
878.8613144480331
 20
51.12691398466444
 10
878.8613144480331
 20
51.17378898466444
 42
-0.9999999999999998
 10
879.0644394480331
 20
51.17378898466444
 10
879.0644394480331
 20
51.12691398466444
 10
879.111314448033
 20
51.12691398466444
 42
-0.9999999999999998
 10
879.111314448033
 20
50.92378898466444
 10
879.0644394480331
 20
50.92378898466444
 10
879.0644394480331
 20
50.87691398466444
 42
-0.9999999999999998
  0
DIMENSION
  5
18B4E
330
1F
100
AcDbEntity
  8
0
370
    35
100
AcDbDimension
280
     0
  2
*D2
 10
882.0879044360728
 20
56.45325765189292
 30
0.0
 11
882.9941544360726
 21
56.45325765189292
 31
0.0
 70
   160
 71
     5
 42
0.5
 73
     0
 74
     0
 75
     0
  3
HEND_SD 0.250
100
AcDbAlignedDimension
 13
882.5879044360727
 23
55.90271426956593
 33
0.0
 14
882.0879044360728
 24
55.90271426956593
 34
0.0
100
AcDbRotatedDimension
1001
ACAD_DSTYLE_DIMINSPECT
1070
   396
1000
100%
1070
   395
1000

1070
   394
1070
    33
1070
   393
1070
     0
1001
ACAD
1000
DSTYLE
1002
{
1070
   340
1005
19D30
1070
    90
1070
     1
1002
}
  0
DIMENSION
  5
18B5C
330
1F
100
AcDbEntity
  8
0
370
    35
100
AcDbDimension
280
     0
  2
*D3
 10
880.0879044360726
 20
56.45325765189292
 30
0.0
 11
880.4629044360726
 21
56.45325765189292
 31
0.0
 70
    32
 71
     5
 42
0.75
 73
     0
 74
     0
 75
     0
  3
HEND_SD 0.250
100
AcDbAlignedDimension
 13
880.8379044360727
 23
56.15271426956592
 33
0.0
 14
880.0879044360726
 24
56.15271426956592
 34
0.0
100
AcDbRotatedDimension
1001
ACAD_DSTYLE_DIMINSPECT
1070
   396
1000
100%
1070
   395
1000

1070
   394
1070
    33
1070
   393
1070
     0
1001
ACAD
1000
DSTYLE
1002
{
1070
   340
1005
19D30
1070
    90
1070
     1
1002
}
  0
INSERT
  5
18BE0
330
1F
100
AcDbEntity
  8
0
100
AcDbBlockReference
  2
HMC logogrey2
 10
879.4526206955179
 20
43.17984743165002
 30
0.0
 41
0.03125
 42
0.03125
 43
0.25
  0
LWPOLYLINE
  5
18E8F
330
1F
100
AcDbEntity
  8
0
100
AcDbPolyline
 90
        4
 70
     0
 43
0.0
 10
885.3728864625152
 20
48.63009712740683
 10
885.3728864625152
 20
57.49803567986404
 10
877.3728864625152
 20
57.49803567986404
 10
877.3728864625152
 20
48.63009712740683
  0
LINE
  5
18E90
330
1F
100
AcDbEntity
  8
0
 62
     7
100
AcDbLine
 10
877.3728864625152
 20
48.63009712740683
 30
0.0
 11
885.3728864625152
 21
48.63009712740683
 31
0.0
  0
LWPOLYLINE
  5
18E92
330
1F
100
AcDbEntity
  8
Defpoints
100
AcDbPolyline
 90
        4
 70
     1
 43
0.0
 10
877.122886462515
 20
46.74803567986403
 10
885.6228864625151
 20
46.74803567986403
 10
885.6228864625151
 20
57.74803567986404
 10
877.122886462515
 20
57.74803567986404
  0
LWPOLYLINE
  5
18EDE
330
1F
100
AcDbEntity
  8
0
100
AcDbPolyline
 90
       12
 70
     1
 43
0.0
 10
882.8143106890276
 20
50.1269139030453
 10
882.8143106890276
 20
50.1737889030453
 10
882.8611856890276
 20
50.1737889030453
 42
0.9999999999999998
 10
882.8611856890276
 20
50.3769139030453
 10
882.8143106890276
 20
50.3769139030453
 10
882.8143106890276
 20
50.42378890304529
 42
0.9999999999999998
 10
882.6111856890276
 20
50.42378890304529
 10
882.6111856890276
 20
50.3769139030453
 10
882.5643106890279
 20
50.3769139030453
 42
0.9999999999999998
 10
882.5643106890279
 20
50.1737889030453
 10
882.6111856890276
 20
50.1737889030453
 10
882.6111856890276
 20
50.1269139030453
 42
0.9999999999999998
  0
LWPOLYLINE
  5
18EDF
330
1F
100
AcDbEntity
  8
0
100
AcDbPolyline
 90
       12
 70
     1
 43
0.0
 10
883.9394394480331
 20
49.75191398466444
 10
883.9394394480329
 20
49.79878898466444
 10
883.9863144480331
 20
49.79878898466444
 42
0.9999999999999998
 10
883.9863144480331
 20
50.00191398466444
 10
883.9394394480329
 20
50.00191398466444
 10
883.9394394480331
 20
50.04878898466444
 42
0.9999999999999998
 10
883.7363144480331
 20
50.04878898466444
 10
883.7363144480331
 20
50.00191398466444
 10
883.6894394480331
 20
50.00191398466444
 42
0.9999999999999998
 10
883.6894394480331
 20
49.79878898466444
 10
883.7363144480331
 20
49.79878898466444
 10
883.7363144480331
 20
49.75191398466444
 42
0.9999999999999998
  0
LWPOLYLINE
  5
18EE0
330
1F
100
AcDbEntity
  8
0
100
AcDbPolyline
 90
       12
 70
     1
 43
0.0
 10
883.1894394480331
 20
49.75191398466444
 10
883.1894394480331
 20
49.79878898466444
 10
883.236314448033
 20
49.79878898466444
 42
0.9999999999999998
 10
883.236314448033
 20
50.00191398466444
 10
883.1894394480331
 20
50.00191398466444
 10
883.1894394480331
 20
50.04878898466444
 42
0.9999999999999998
 10
882.9863144480331
 20
50.04878898466444
 10
882.9863144480331
 20
50.00191398466444
 10
882.9394394480331
 20
50.00191398466444
 42
0.9999999999999998
 10
882.9394394480331
 20
49.79878898466444
 10
882.9863144480331
 20
49.79878898466444
 10
882.9863144480331
 20
49.75191398466444
 42
0.9999999999999998
  0
LWPOLYLINE
  5
18EE1
330
1F
100
AcDbEntity
  8
0
100
AcDbPolyline
 90
       12
 70
     1
 43
0.0
 10
883.5644394480331
 20
50.12691398466444
 10
883.5644394480331
 20
50.17378898466444
 10
883.611314448033
 20
50.17378898466444
 42
0.9999999999999998
 10
883.611314448033
 20
50.37691398466444
 10
883.5644394480331
 20
50.37691398466444
 10
883.5644394480331
 20
50.42378898466444
 42
0.9999999999999998
 10
883.3613144480331
 20
50.42378898466444
 10
883.3613144480331
 20
50.37691398466444
 10
883.3144394480331
 20
50.37691398466444
 42
0.9999999999999998
 10
883.3144394480331
 20
50.17378898466444
 10
883.3613144480331
 20
50.17378898466444
 10
883.3613144480331
 20
50.12691398466444
 42
0.9999999999999998
  0
LWPOLYLINE
  5
18EE2
330
1F
100
AcDbEntity
  8
0
100
AcDbPolyline
 90
       12
 70
     1
 43
0.0
 10
878.6894394480331
 20
49.75191398466444
 10
878.6894394480331
 20
49.79878898466444
 10
878.736314448033
 20
49.79878898466444
 42
0.9999999999999998
 10
878.736314448033
 20
50.00191398466444
 10
878.6894394480331
 20
50.00191398466444
 10
878.6894394480331
 20
50.04878898466444
 42
0.9999999999999998
 10
878.4863144480331
 20
50.04878898466444
 10
878.4863144480331
 20
50.00191398466444
 10
878.4394394480331
 20
50.00191398466444
 42
0.9999999999999998
 10
878.4394394480331
 20
49.79878898466444
 10
878.4863144480331
 20
49.79878898466444
 10
878.4863144480331
 20
49.75191398466444
 42
0.9999999999999998
  0
LWPOLYLINE
  5
18EE3
330
1F
100
AcDbEntity
  8
0
100
AcDbPolyline
 90
       12
 70
     1
 43
0.0
 10
881.111314448033
 20
50.12691398466444
 10
881.111314448033
 20
50.17378898466444
 10
881.064439448033
 20
50.17378898466444
 42
-0.9999999999999998
 10
881.064439448033
 20
50.37691398466444
 10
881.111314448033
 20
50.37691398466444
 10
881.111314448033
 20
50.42378898466444
 42
-0.9999999999999998
 10
881.314439448033
 20
50.42378898466444
 10
881.314439448033
 20
50.37691398466444
 10
881.3613144480331
 20
50.37691398466444
 42
-0.9999999999999998
 10
881.3613144480331
 20
50.17378898466444
 10
881.314439448033
 20
50.17378898466444
 10
881.314439448033
 20
50.12691398466444
 42
-0.9999999999999998
  0
LWPOLYLINE
  5
18EE4
330
1F
100
AcDbEntity
  8
0
100
AcDbPolyline
 90
       12
 70
     1
 43
0.0
 10
882.064439448033
 20
50.12691398466444
 10
882.064439448033
 20
50.17378898466444
 10
882.1113144480333
 20
50.17378898466444
 42
0.9999999999999998
 10
882.1113144480333
 20
50.37691398466444
 10
882.064439448033
 20
50.37691398466444
 10
882.064439448033
 20
50.42378898466444
 42
0.9999999999999998
 10
881.861314448033
 20
50.42378898466444
 10
881.861314448033
 20
50.37691398466444
 10
881.8144394480331
 20
50.37691398466444
 42
0.9999999999999998
 10
881.8144394480331
 20
50.17378898466444
 10
881.861314448033
 20
50.17378898466444
 10
881.861314448033
 20
50.12691398466444
 42
0.9999999999999998
  0
LWPOLYLINE
  5
18EE5
330
1F
100
AcDbEntity
  8
0
100
AcDbPolyline
 90
       12
 70
     1
 43
0.0
 10
879.4394394480331
 20
49.75191398466444
 10
879.4394394480331
 20
49.79878898466444
 10
879.4863144480331
 20
49.79878898466444
 42
0.9999999999999998
 10
879.4863144480331
 20
50.00191398466444
 10
879.4394394480331
 20
50.00191398466444
 10
879.4394394480331
 20
50.04878898466444
 42
0.9999999999999998
 10
879.2363144480331
 20
50.04878898466444
 10
879.2363144480331
 20
50.00191398466444
 10
879.1894394480333
 20
50.00191398466444
 42
0.9999999999999998
 10
879.1894394480333
 20
49.79878898466444
 10
879.2363144480331
 20
49.79878898466444
 10
879.2363144480331
 20
49.75191398466444
 42
0.9999999999999998
  0
LWPOLYLINE
  5
18EE6
330
1F
100
AcDbEntity
  8
0
100
AcDbPolyline
 90
       12
 70
     1
 43
0.0
 10
880.1894394480331
 20
49.75191398466444
 10
880.1894394480331
 20
49.79878898466444
 10
880.2363144480331
 20
49.79878898466444
 42
0.9999999999999998
 10
880.2363144480331
 20
50.00191398466444
 10
880.1894394480331
 20
50.00191398466444
 10
880.1894394480331
 20
50.04878898466444
 42
0.9999999999999998
 10
879.9863144480331
 20
50.04878898466444
 10
879.9863144480331
 20
50.00191398466444
 10
879.939439448033
 20
50.00191398466444
 42
0.9999999999999998
 10
879.939439448033
 20
49.79878898466444
 10
879.9863144480331
 20
49.79878898466444
 10
879.9863144480331
 20
49.75191398466444
 42
0.9999999999999998
  0
LWPOLYLINE
  5
18EE7
330
1F
100
AcDbEntity
  8
0
100
AcDbPolyline
 90
       12
 70
     1
 43
0.0
 10
880.9394394480333
 20
49.75191398466444
 10
880.9394394480333
 20
49.79878898466444
 10
880.9863144480331
 20
49.79878898466444
 42
0.9999999999999998
 10
880.9863144480331
 20
50.00191398466444
 10
880.9394394480333
 20
50.00191398466444
 10
880.9394394480333
 20
50.04878898466444
 42
0.9999999999999998
 10
880.7363144480333
 20
50.04878898466444
 10
880.7363144480333
 20
50.00191398466444
 10
880.689439448033
 20
50.00191398466444
 42
0.9999999999999998
 10
880.689439448033
 20
49.79878898466444
 10
880.7363144480333
 20
49.79878898466444
 10
880.7363144480333
 20
49.75191398466444
 42
0.9999999999999998
  0
LWPOLYLINE
  5
18EE8
330
1F
100
AcDbEntity
  8
0
100
AcDbPolyline
 90
       12
 70
     1
 43
0.0
 10
881.689439448033
 20
49.75191398466444
 10
881.689439448033
 20
49.79878898466444
 10
881.7363144480331
 20
49.79878898466444
 42
0.9999999999999998
 10
881.7363144480331
 20
50.00191398466444
 10
881.689439448033
 20
50.00191398466444
 10
881.689439448033
 20
50.04878898466444
 42
0.9999999999999998
 10
881.486314448033
 20
50.04878898466444
 10
881.486314448033
 20
50.00191398466444
 10
881.4394394480331
 20
50.00191398466444
 42
0.9999999999999998
 10
881.4394394480331
 20
49.79878898466444
 10
881.486314448033
 20
49.79878898466444
 10
881.486314448033
 20
49.75191398466444
 42
0.9999999999999998
  0
LWPOLYLINE
  5
18EE9
330
1F
100
AcDbEntity
  8
0
100
AcDbPolyline
 90
       12
 70
     1
 43
0.0
 10
882.439439448033
 20
49.75191398466444
 10
882.439439448033
 20
49.79878898466444
 10
882.486314448033
 20
49.79878898466444
 42
0.9999999999999998
 10
882.486314448033
 20
50.00191398466444
 10
882.439439448033
 20
50.00191398466444
 10
882.439439448033
 20
50.04878898466444
 42
0.9999999999999998
 10
882.236314448033
 20
50.04878898466444
 10
882.236314448033
 20
50.00191398466444
 10
882.1894394480331
 20
50.00191398466444
 42
0.9999999999999998
 10
882.1894394480331
 20
49.79878898466444
 10
882.236314448033
 20
49.79878898466444
 10
882.236314448033
 20
49.75191398466444
 42
0.9999999999999998
  0
LWPOLYLINE
  5
18EEA
330
1F
100
AcDbEntity
  8
0
100
AcDbPolyline
 90
       12
 70
     1
 43
0.0
 10
880.3613144480333
 20
50.12691398466444
 10
880.3613144480333
 20
50.17378898466444
 10
880.314439448033
 20
50.17378898466444
 42
-0.9999999999999998
 10
880.314439448033
 20
50.37691398466444
 10
880.3613144480333
 20
50.37691398466444
 10
880.3613144480333
 20
50.42378898466444
 42
-0.9999999999999998
 10
880.5644394480331
 20
50.42378898466444
 10
880.5644394480331
 20
50.37691398466444
 10
880.6113144480331
 20
50.37691398466444
 42
-0.9999999999999998
 10
880.6113144480331
 20
50.17378898466444
 10
880.5644394480331
 20
50.17378898466444
 10
880.5644394480331
 20
50.12691398466444
 42
-0.9999999999999998
  0
LWPOLYLINE
  5
18EEB
330
1F
100
AcDbEntity
  8
0
100
AcDbPolyline
 90
       12
 70
     1
 43
0.0
 10
879.6113144480331
 20
50.12691398466444
 10
879.6113144480331
 20
50.17378898466444
 10
879.5644394480333
 20
50.17378898466444
 42
-0.9999999999999998
 10
879.5644394480333
 20
50.37691398466444
 10
879.6113144480331
 20
50.37691398466444
 10
879.6113144480331
 20
50.42378898466444
 42
-0.9999999999999998
 10
879.8144394480331
 20
50.42378898466444
 10
879.8144394480331
 20
50.37691398466444
 10
879.8613144480331
 20
50.37691398466444
 42
-0.9999999999999998
 10
879.8613144480331
 20
50.17378898466444
 10
879.8144394480331
 20
50.17378898466444
 10
879.8144394480331
 20
50.12691398466444
 42
-0.9999999999999998
  0
LWPOLYLINE
  5
18EEC
330
1F
100
AcDbEntity
  8
0
100
AcDbPolyline
 90
       12
 70
     1
 43
0.0
 10
878.8613144480331
 20
50.12691398466444
 10
878.8613144480331
 20
50.17378898466444
 10
878.8144394480331
 20
50.17378898466444
 42
-0.9999999999999998
 10
878.8144394480331
 20
50.37691398466444
 10
878.8613144480331
 20
50.37691398466444
 10
878.8613144480331
 20
50.42378898466444
 42
-0.9999999999999998
 10
879.0644394480331
 20
50.42378898466444
 10
879.0644394480331
 20
50.37691398466444
 10
879.111314448033
 20
50.37691398466444
 42
-0.9999999999999998
 10
879.111314448033
 20
50.17378898466444
 10
879.0644394480331
 20
50.17378898466444
 10
879.0644394480331
 20
50.12691398466444
 42
-0.9999999999999998
  0
LWPOLYLINE
  5
19B32
330
1F
100
AcDbEntity
  8
PERF_FILL
 62
     7
100
AcDbPolyline
 90
        4
 70
     1
 43
0.0
 10
877.3740639090206
 20
48.13785112542908
 10
882.596270673938
 20
48.13785112542908
 10
882.596270673938
 20
46.9994345995815
 10
877.3740639090206
 20
46.9994345995815
  0
TEXT
  5
19B33
330
1F
100
AcDbEntity
  8
PERF_FILL
100
AcDbText
 10
878.0564462521533
 20
47.32852663481875
 30
0.0
 40
0.13415625
  1
50%%% OPEN AREA
  7
ZZ-DETAILTITLE
100
AcDbText
  0
LINE
  5
19B34
330
1F
100
AcDbEntity
  8
text
100
AcDbLine
 10
877.4539088417263
 20
47.50496596564558
 30
0.0
 11
882.5349295088454
 21
47.5052003210214
 31
0.0
  0
TEXT
  5
19B35
330
1F
100
AcDbEntity
  8
PERF_FILL
100
AcDbText
 10
878.0606729386303
 20
47.55837505475693
 30
0.0
 40
0.13415625
  1
HENDRICK .500" CLOVERLEAF
  7
ZZ-DETAILTITLE
100
AcDbText
  0
CIRCLE
  5
19B36
330
1F
100
AcDbEntity
  8
text
100
AcDbCircle
 10
877.7203828933934
 20
47.50496596564558
 30
0.0
 40
0.2664740516671671
  0
DIMENSION
  5
19B3A
330
1F
100
AcDbEntity
  8
0
370
    35
100
AcDbDimension
280
     0
  2
*D7
 10
877.8984696454601
 20
53.65271426956592
 30
0.0
 11
877.8984696454601
 21
54.02771426956606
 31
0.0
 70
    32
 71
     5
 42
0.75
 73
     0
 74
     0
 75
     0
  3
HEND_SD 0.250
100
AcDbAlignedDimension
 13
878.3379044360726
 23
54.40271426956592
 33
0.0
 14
878.3379044360726
 24
53.65271426956592
 34
0.0
 50
90.0
100
AcDbRotatedDimension
1001
ACAD_DSTYLE_DIMINSPECT
1070
   396
1000
100%
1070
   395
1000

1070
   394
1070
    33
1070
   393
1070
     0
1001
ACAD
1000
DSTYLE
1002
{
1070
   340
1005
19D30
1070
    90
1070
     1
1002
}
  0
DIMENSION
  5
19B48
330
1F
100
AcDbEntity
  8
0
370
    35
100
AcDbDimension
280
     0
  2
*D8
 10
880.5878769480331
 20
49.26365435892107
 30
0.0
 11
881.0712279030125
 21
49.26365435892107
 31
0.0
 70
    32
 71
     5
 42
0.25
 73
     0
 74
     0
 75
     0
  3
HEND_SD 0.250
100
AcDbAlignedDimension
 13
880.337876948033
 23
49.90035148466444
 33
0.0
 14
880.5878769480331
 24
49.90035148466444
 34
0.0
100
AcDbRotatedDimension
1001
ACAD_DSTYLE_DIMINSPECT
1070
   396
1000
100%
1070
   395
1000

1070
   394
1070
    33
1070
   393
1070
     0
1001
ACAD
1000
DSTYLE
1002
{
1070
   340
1005
19D30
1070
    90
1070
     1
1002
}
  0
DIMENSION
  5
19B56
330
1F
100
AcDbEntity
  8
0
370
    35
100
AcDbDimension
280
     0
  2
*D9
 10
884.5513003378286
 20
51.15035148466444
 30
0.0
 11
884.5513003378286
 21
51.63370243964411
 31
0.0
 70
    32
 71
     5
 42
0.25
 73
     0
 74
     0
 75
     0
  3
HEND_SD 0.250
100
AcDbAlignedDimension
 13
883.837876948033
 23
50.90035148466444
 33
0.0
 14
883.837876948033
 24
51.15035148466444
 34
0.0
 50
90.0
100
AcDbRotatedDimension
1001
ACAD_DSTYLE_DIMINSPECT
1070
   396
1000
100%
1070
   395
1000

1070
   394
1070
    33
1070
   393
1070
     0
1001
ACAD
1000
DSTYLE
1002
{
1070
   340
1005
19D30
1070
    90
1070
     1
1002
}
  0
DIMENSION
  5
19B83
330
1F
100
AcDbEntity
  8
0
370
    35
100
AcDbDimension
280
     0
  2
*D10
 10
877.8984696454601
 20
51.15035148466444
 30
0.0
 11
877.8984696454601
 21
51.40035148466457
 31
0.0
 70
    32
 71
     5
 42
0.5
 73
     0
 74
     0
 75
     0
  3
HEND_SD 0.250
100
AcDbAlignedDimension
 13
878.5878769480333
 23
51.65035148466444
 33
0.0
 14
878.5878769480333
 24
51.15035148466444
 34
0.0
 50
90.0
100
AcDbRotatedDimension
1001
ACAD_DSTYLE_DIMINSPECT
1070
   396
1000
100%
1070
   395
1000

1070
   394
1070
    33
1070
   393
1070
     0
1001
ACAD
1000
DSTYLE
1002
{
1070
   340
1005
19D30
1070
    90
1070
     1
1002
}
  0
OLE2FRAME
  5
19FB0
330
1F
100
AcDbEntity
  8
PERF_FILL
100
AcDbOle2Frame
 70
     2
 73
     1
 90
        0
1001
ACAD
1000
OLEBEGIN
1070
    70
1070
     1
1070
    71
1070
     1
1070
    40
1040
0.0
1070
    41
1040
2.666984913297483
1070
    42
1040
1.128584119373555
1070
    72
1070
     0
1070
     3
1000

1070
    90
1071
        0
1070
    43
1040
0.0
1070
     4
1000

1070
    91
1071
        0
1070
    44
1040
0.0
1000
OLEEND
  0
LINE
  5
19FB1
330
1F
100
AcDbEntity
  8
PERF_FILL
100
AcDbLine
 10
882.6514019268968
 20
48.13785112542908
 30
0.0
 11
885.3183868401945
 21
48.13785112542908
 31
0.0
  0
LINE
  5
19FB2
330
1F
100
AcDbEntity
  8
PERF_FILL
100
AcDbLine
 10
885.3183868401945
 20
48.13785112542908
 30
0.0
 11
885.3183868401945
 21
47.00926700605552
 31
0.0
  0
LINE
  5
19FB3
330
1F
100
AcDbEntity
  8
PERF_FILL
100
AcDbLine
 10
885.3183868401945
 20
47.00926700605552
 30
0.0
 11
882.6514019268968
 21
47.00926700605552
 31
0.0
  0
LINE
  5
19FB4
330
1F
100
AcDbEntity
  8
PERF_FILL
100
AcDbLine
 10
882.6514019268968
 20
47.00926700605552
 30
0.0
 11
882.6514019268968
 21
48.13785112542908
 31
0.0
  0
OLE2FRAME
  5
1A03A
330
1F
100
AcDbEntity
  8
PERF_FILL
100
AcDbOle2Frame
 70
     2
  1
OLE
1001
ACAD
1000
OLEBEGIN
1070
    70
1070
     1
1070
    71
1070
     1
1070
    40
1040
0.0
1070
    41
1040
2.682597709344122
1070
    42
1040
1.144414993580689
1070
    72
1070
     0
1070
     3
1000

1070
    90
1071
        0
1070
    43
1040
0.0
1070
     4
1000

1070
    91
1071
        0
1070
    44
1040
0.0
1000
OLEEND
  0
LINE
  5
1A03B
330
1F
100
AcDbEntity
  8
PERF_FILL
100
AcDbLine
 10
882.6386995687066
 20
48.14384959316218
 30
0.0
 11
885.2746231002988
 21
48.14384959316218
 31
0.0
  0
LINE
  5
1A03C
330
1F
100
AcDbEntity
  8
PERF_FILL
100
AcDbLine
 10
882.6386995687066
 20
46.9994345995815
 30
0.0
 11
882.6386995687066
 21
48.11528860309522
 31
0.0
  0
LINE
  5
1A03D
330
1F
100
AcDbEntity
  8
PERF_FILL
100
AcDbLine
 10
885.3212972780509
 20
48.14384959316218
 30
0.0
 11
885.3212972780509
 21
46.9994345995815
 31
0.0
  0
LINE
  5
1A03E
330
1F
100
AcDbEntity
  8
PERF_FILL
100
AcDbLine
 10
885.3212972780509
 20
46.9994345995815
 30
0.0
 11
882.6386995687066
 21
46.9994345995815
 31
0.0
  0
VIEWPORT
  5
10217
330
10216
100
AcDbEntity
 67
     1
  8
0
348
18BA7
100
AcDbViewport
 10
7.088612877666783
 20
9.090532957781174
 30
0.0
 40
32.3821799844003
 41
19.82748285117609
 68
     1
 69
     1
 12
7.088612877666783
 22
9.090532957781174
 13
0.0
 23
0.0
 14
0.5
 24
0.5
 15
0.5
 25
0.5
 16
0.0
 26
0.0
 36
1.0
 17
0.0
 27
0.0
 37
0.0
 42
50.0
 43
0.0
 44
0.0
 45
19.82748285117609
 50
0.0
 51
0.0
 72
  2000
 90
    32800
  1

281
     0
 71
     1
 74
     0
110
0.0
120
0.0
130
0.0
111
1.0
121
0.0
131
0.0
112
0.0
122
1.0
132
0.0
 79
     0
146
0.0
170
     0
 61
     5
348
18BA7
292
     1
282
     1
141
0.0
142
0.0
 63
   250
421
  3355443
1001
GENIUS_GENODEF_13
1002
{
1000
HIER
1070
     0
1002
}
1002
{
1000
MANEDIT
1070
     0
1002
}
1002
{
1000
NOSEL
1070
     0
1002
}
1002
{
1000
BEHIND
1070
     0
1002
}
1002
{
1000
OTHER
1070
     0
1002
}
1002
{
1000
REACTOR
1002
}
1001
GENIUS_GENOBJ-N-SDF_13
1002
{
1000
OWNER
1000
GEN
1002
}
1001
GENIUS_GENSCREG_15
1000
PF
1040
1.0
1000
DF
1040
1.0
1000
MIN
1011
-9.102477114533364
1021
-0.8232084678068716
1031
0.0
1000
MAX
1011
23.27970286986694
1021
11.81500486299752
1031
0.0
1000
FLAGS
1070
     4
  0
LWPOLYLINE
  5
1021D
330
10216
100
AcDbEntity
 67
     1
  8
sheet-outline
 62
     8
100
AcDbPolyline
 90
        6
 70
     0
 43
0.0
 10
7.300236501491415
 20
-0.307347194728214
 10
8.095469315149461
 20
-0.307347194728214
 10
8.095469315149461
 20
10.39491409921794
 10
-0.1178934614576779
 20
10.39491409921794
 10
-0.1178934614576779
 20
-0.307347194728214
 10
6.828760559043786
 20
-0.307347194728214
  0
VIEWPORT
  5
1022F
330
10216
100
AcDbEntity
 67
     1
  8
Defpoints
348
18BA7
100
AcDbViewport
 10
3.880533485223851
 20
4.998559388327378
 30
0.0
 40
8.429871659851219
 41
10.97522963774033
 68
     2
 69
     2
 12
881.2122502700376
 22
52.91713140726674
 13
0.0
 23
0.0
 14
0.5
 24
0.5
 15
0.5
 25
0.5
 16
0.0
 26
0.0
 36
1.0
 17
0.0
 27
0.0
 37
0.0
 42
50.0
 43
0.0
 44
0.0
 45
10.97523556081666
 50
0.0
 51
0.0
 72
  2000
 90
    32800
  1

281
     0
 71
     1
 74
     0
110
0.0
120
0.0
130
0.0
111
1.0
121
0.0
131
0.0
112
0.0
122
1.0
132
0.0
 79
     0
146
0.0
170
     0
 61
     5
348
18BA7
292
     1
282
     1
141
0.0
142
0.0
 63
   250
421
  3355443
1001
GENIUS_GENODEF_13
1002
{
1000
HIER
1070
     0
1002
}
1002
{
1000
MANEDIT
1070
     0
1002
}
1002
{
1000
NOSEL
1070
     0
1002
}
1002
{
1000
BEHIND
1070
     0
1002
}
1002
{
1000
OTHER
1070
     0
1002
}
1002
{
1000
REACTOR
1002
}
1001
GENIUS_GENOBJ-N-SDF_13
1002
{
1000
OWNER
1000
GEN
1002
}
1001
GENIUS_GENSCREG_15
1000
PF
1040
0.0
1000
DF
1040
0.0
1000
MIN
1011
-0.3344023447017577
1021
-0.4890554305427877
1031
0.0
1000
MAX
1011
8.095469315149461
1021
10.48617420719754
1031
0.0
1000
FLAGS
1070
     4
  0
ENDSEC
  0
SECTION
  2
OBJECTS
  0
DICTIONARY
  5
C
330
0
100
AcDbDictionary
281
     1
  3
ACAD_CIP_PREVIOUS_PRODUCT_INFO
350
18CD6
  3
ACAD_COLOR
350
13333
  3
ACAD_DETAILVIEWSTYLE
350
18CCC
  3
ACAD_FIELDLIST
350
18D40
  3
ACAD_GROUP
350
D
  3
ACAD_IMAGE_DICT
350
19B2E
  3
ACAD_IMAGE_VARS
350
19B31
  3
ACAD_LAYOUT
350
1A
  3
ACAD_MATERIAL
350
13332
  3
ACAD_MLEADERSTYLE
350
18BCE
  3
ACAD_MLINESTYLE
350
17
  3
ACAD_PLOTSETTINGS
350
19
  3
ACAD_PLOTSTYLENAME
350
E
  3
ACAD_SCALELIST
350
18BBC
  3
ACAD_SECTIONVIEWSTYLE
350
18CCA
  3
ACAD_TABLESTYLE
350
18BBA
  3
ACAD_VISUALSTYLE
350
18BA1
  3
ACDB_RECOMPOSE_DATA
350
1A087
  3
AcDbVariableDictionary
350
66
  3
AcmDictionary
350
18D06
  3
AEC_PROPERTY_SET_DEFS
350
18C4A
  3
AMG
350
18CDA
  3
AMGSNAPSETTINGS
350
18E86
  3
ASE_INDEX_DICTIONARY
350
13350
  0
DICTIONARY
  5
18F02
330
8
100
AcDbDictionary
280
     1
281
     1
  0
DICTIONARY
  5
EB
330
2
100
AcDbDictionary
280
     1
281
     1
  3
ACAD_LAYERFILTERS
360
186
  3
ACAD_LAYERSTATES
360
133AF
  0
DICTIONARY
  5
18CAC
330
10
100
AcDbDictionary
280
     1
281
     1
  3
ADSK_XREC_LAYER_RECONCILED
360
18CAD
  0
DICTIONARY
  5
18CAE
330
100
100
AcDbDictionary
280
     1
281
     1
  3
ADSK_XREC_LAYER_RECONCILED
360
18CAF
  0
DICTIONARY
  5
18CB0
330
187
100
AcDbDictionary
280
     1
281
     1
  3
ADSK_XREC_LAYER_RECONCILED
360
18CB1
  0
DICTIONARY
  5
18CB4
330
133AC
100
AcDbDictionary
280
     1
281
     1
  3
ADSK_XREC_LAYER_RECONCILED
360
18CB5
  0
DICTIONARY
  5
19B1E
330
19B1D
100
AcDbDictionary
280
     1
281
     1
  0
DICTIONARY
  5
18BEA
330
1F
100
AcDbDictionary
280
     1
281
     1
  3
ACAD_SORTENTS
360
18BEB
  0
DICTIONARY
  5
19F9F
330
19F99
100
AcDbDictionary
280
     1
281
     1
  3
ACAD_SORTENTS
360
19FA0
  0
XRECORD
  5
18CD6
102
{ACAD_REACTORS
330
C
102
}
330
C
100
AcDbXrecord
280
     1
300
AMECH_PP
300
2013
300
AMECH_PP_F_S
  0
DICTIONARY
  5
13333
102
{ACAD_REACTORS
330
C
102
}
330
C
100
AcDbDictionary
281
     1
  0
DICTIONARY
  5
18CCC
102
{ACAD_REACTORS
330
C
102
}
330
C
100
AcDbDictionary
281
     1
  3
ASME Y14.35 - 1987(1)
350
19A89
  3
Imperial24
350
18CCD
  0
FIELDLIST
  5
18D40
102
{ACAD_REACTORS
330
C
102
}
330
C
100
AcDbIdSet
 90
        4
330
19A91
330
19A92
330
19A93
330
19A94
100
AcDbFieldList
  0
DICTIONARY
  5
D
102
{ACAD_REACTORS
330
C
102
}
330
C
100
AcDbDictionary
281
     1
  0
DICTIONARY
  5
19B2E
102
{ACAD_REACTORS
330
C
102
}
330
C
100
AcDbDictionary
281
     1
  3
CAD.Branding-MFG-HAP-2
350
19B2F
  0
RASTERVARIABLES
  5
19B31
102
{ACAD_REACTORS
330
C
102
}
330
C
100
AcDbRasterVariables
 90
        0
 70
     1
 71
     1
 72
     5
  0
DICTIONARY
  5
1A
102
{ACAD_REACTORS
330
C
102
}
330
C
100
AcDbDictionary
281
     1
  3
Cloverleaf
350
10240
  3
Model
350
22
  0
DICTIONARY
  5
13332
102
{ACAD_REACTORS
330
C
102
}
330
C
100
AcDbDictionary
281
     1
  3
ByBlock
350
18B91
  3
ByLayer
350
18B89
  3
Global
350
18B99
  0
DICTIONARY
  5
18BCE
102
{ACAD_REACTORS
330
C
102
}
330
C
100
AcDbDictionary
281
     1
  3
Standard
350
18BCF
  0
DICTIONARY
  5
17
102
{ACAD_REACTORS
330
C
102
}
330
C
100
AcDbDictionary
281
     1
  3
Standard
350
18
  0
DICTIONARY
  5
19
102
{ACAD_REACTORS
330
C
102
}
330
C
100
AcDbDictionary
281
     1
  0
ACDBDICTIONARYWDFLT
  5
E
102
{ACAD_REACTORS
330
C
102
}
330
C
100
AcDbDictionary
281
     1
  3
Normal
350
F
100
AcDbDictionaryWithDefault
340
F
  0
DICTIONARY
  5
18BBC
102
{ACAD_REACTORS
330
C
102
}
330
C
100
AcDbDictionary
281
     1
  3
A0
350
18BBD
  3
A1
350
18BBE
  3
A2
350
18BBF
  3
A3
350
18BC0
  3
A4
350
18BC1
  3
A5
350
18BC2
  3
A6
350
18BC3
  3
A7
350
18BC4
  3
A8
350
18BC5
  3
A9
350
18BC6
  3
B0
350
18BC7
  3
B1
350
18BC8
  3
B2
350
18BC9
  3
B3
350
18BCA
  3
B4
350
18BCB
  3
B5
350
18BCC
  3
B6
350
18BCD
  0
DICTIONARY
  5
18CCA
102
{ACAD_REACTORS
330
C
102
}
330
C
100
AcDbDictionary
281
     1
  3
ASME Y14.3 - 2003(1)
350
19A8E
  3
Imperial24
350
18CCB
  0
DICTIONARY
  5
18BBA
102
{ACAD_REACTORS
330
C
102
}
330
C
100
AcDbDictionary
281
     1
  3
Standard
350
18BBB
  0
DICTIONARY
  5
18BA1
102
{ACAD_REACTORS
330
C
102
}
330
C
100
AcDbDictionary
281
     1
  3
2dWireframe
350
18BA7
  3
Basic
350
18BA6
  3
Brighten
350
18BAD
  3
ColorChange
350
18BB1
  3
Conceptual
350
18BAA
  3
Dim
350
18BAC
  3
EdgeColorOff
350
18BB9
  3
Facepattern
350
18BB0
  3
Flat
350
18BA2
  3
FlatWithEdges
350
18BA3
  3
Gouraud
350
18BA4
  3
GouraudWithEdges
350
18BA5
  3
Hidden
350
18BA9
  3
JitterOff
350
18BB7
  3
Linepattern
350
18BAF
  3
OverhangOff
350
18BB8
  3
Realistic
350
18BAB
  3
Shaded
350
18BB6
  3
Shaded with edges
350
18BB5
  3
Shades of Gray
350
18BB2
  3
Sketchy
350
18BB3
  3
Thicken
350
18BAE
  3
Wireframe
350
18BA8
  3
X-Ray
350
18BB4
  0
XRECORD
  5
1A087
102
{ACAD_REACTORS
330
C
102
}
330
C
100
AcDbXrecord
280
     1
 90
        1
330
18BBB
  0
DICTIONARY
  5
66
102
{ACAD_REACTORS
330
C
102
}
330
C
100
AcDbDictionary
281
     1
  3
CANNOSCALE
350
18CC5
  3
CMLEADERSTYLE
350
18CC3
  3
CTABLESTYLE
350
18CC2
  3
CVIEWDETAILSTYLE
350
18F4C
  3
CVIEWSECTIONSTYLE
350
18F4D
  3
DIMASSOC
350
67
  3
EXPORTMODELSPACE
350
19CFE
  3
HIDETEXT
350
6B
  3
HPCOLOR
350
19CD6
  3
LAYEREVAL
350
18CC7
  3
LAYERNOTIFY
350
18CC8
  3
LIGHTINGUNITS
350
18CC6
  3
MSLTSCALE
350
18CC4
  3
PROJECTNAME
350
13425
  3
SOLIDHIST
350
18F4E
  3
SORTENTS
350
D3
  0
DICTIONARY
  5
18D06
102
{ACAD_REACTORS
330
C
102
}
330
C
100
AcDbDictionary
281
     1
  3
AcmStdDictionary
350
18D0D
  3
AMDTSECTSYM_ARROWCOLOR
350
18F78
  0
DICTIONARY
  5
18C4A
102
{ACAD_REACTORS
330
C
102
}
330
C
100
AcDbDictionary
281
     1
  0
DICTIONARY
  5
18CDA
102
{ACAD_REACTORS
330
C
102
}
330
C
100
AcDbDictionary
281
     1
  0
DICTIONARY
  5
18E86
102
{ACAD_REACTORS
330
C
102
}
330
C
100
AcDbDictionary
281
     1
  0
DICTIONARY
  5
13350
102
{ACAD_REACTORS
330
C
102
}
330
C
100
AcDbDictionary
281
     1
  3
ASEBlockHierarchyIndexRecord
350
13351
1001
DCO15
1040
1679292526.417
  0
DICTIONARY
  5
186
102
{ACAD_REACTORS
330
EB
102
}
330
EB
100
AcDbDictionary
280
     1
281
     1
  0
DICTIONARY
  5
133AF
102
{ACAD_REACTORS
330
EB
102
}
330
EB
100
AcDbDictionary
281
     1
  0
XRECORD
  5
18CAD
102
{ACAD_REACTORS
330
18CAC
102
}
330
18CAC
100
AcDbXrecord
280
     1
290
     1
  0
XRECORD
  5
18CAF
102
{ACAD_REACTORS
330
18CAE
102
}
330
18CAE
100
AcDbXrecord
280
     1
290
     1
  0
XRECORD
  5
18CB1
102
{ACAD_REACTORS
330
18CB0
102
}
330
18CB0
100
AcDbXrecord
280
     1
290
     1
  0
XRECORD
  5
18CB5
102
{ACAD_REACTORS
330
18CB4
102
}
330
18CB4
100
AcDbXrecord
280
     1
290
     1
  0
SORTENTSTABLE
  5
18BEB
102
{ACAD_REACTORS
330
18BEA
102
}
330
18BEA
100
AcDbSortentsTable
330
1F
331
18ADF
  5
18AE3
331
18ADB
  5
18ADF
331
18AD7
  5
18AD9
331
18B16
  5
18B26
331
18AD3
  5
18AD7
331
18B12
  5
18B16
331
18B36
  5
18B3A
331
18B32
  5
18B36
331
18B0E
  5
18B12
331
18B0A
  5
18B0E
331
18B06
  5
18B0A
331
18B02
  5
18B06
331
18B2E
  5
18B32
331
18B2A
  5
18B2E
331
18B26
  5
18B2A
331
18B45
  5
18B4A
331
18B4B
  5
18E8F
331
18B41
  5
18B45
331
18AFE
  5
18B02
331
18AFA
  5
18AFE
331
18AF6
  5
18AFA
331
18AF2
  5
18AF6
331
18B3D
  5
18B41
331
18B39
  5
18B3D
331
19B34
  5
19B48
331
18AEE
  5
18AF2
331
13415
  5
18ADB
331
18AEA
  5
18AEE
331
18AE6
  5
18AEA
331
18AE2
  5
18AE6
331
18EEC
  5
19B36
331
18EE8
  5
19B32
331
18EE4
  5
18EE9
331
18EE0
  5
18EE5
331
18ADE
  5
18AE2
331
18ADA
  5
18ADE
331
18AD6
  5
18ADA
331
18B15
  5
18B25
331
18AD2
  5
18AD6
331
18B11
  5
18B15
331
19B56
  5
19CDF
331
18B35
  5
18B39
331
19B3A
  5
19CD8
331
18B31
  5
18B35
331
18E90
  5
18EE1
331
18B0D
  5
18B11
331
18B09
  5
18B0D
331
18B05
  5
18B09
331
18B01
  5
18B05
331
18B2D
  5
18B31
331
18B29
  5
18B2D
331
18B4E
  5
18EDE
331
18B25
  5
18B29
331
18B44
  5
18B49
331
18B4A
  5
18B5C
331
18B40
  5
18B44
331
18AFD
  5
18B01
331
18AF9
  5
18AFD
331
18AF5
  5
18AF9
331
18BE0
  5
133BF
331
18AF1
  5
18AF5
331
18B3C
  5
18B40
331
18B38
  5
18B3C
331
19B33
  5
19B3A
331
18AED
  5
18AF1
331
18AE9
  5
18AED
331
18AE5
  5
18AE9
331
18AE1
  5
18AE5
331
18EEB
  5
19B35
331
18EE7
  5
18EEC
331
18EE3
  5
18EE8
331
18ADD
  5
18AE1
331
18AD9
  5
18ADD
331
18B14
  5
18B18
331
18AD1
  5
18ADC
331
18B10
  5
18B14
331
18EDF
  5
18EE4
331
18B34
  5
18B38
331
18B30
  5
18B34
331
18B0C
  5
18B10
331
18B08
  5
18B0C
331
18B04
  5
18B08
331
18B00
  5
18B04
331
18E8F
  5
18EE0
331
18B2C
  5
18B30
331
18B28
  5
18B2C
331
18B47
  5
18B4C
331
18B4D
  5
18E92
331
18B43
  5
18B48
331
18B49
  5
18B4E
331
18AFC
  5
18B00
331
18AF8
  5
18AFC
331
18AF4
  5
18AF8
331
18AF0
  5
18AF4
331
18B3F
  5
18B43
331
18B3B
  5
18B3F
331
18B18
  5
18B28
331
19B36
  5
19B83
331
19B32
  5
19B37
331
18AEC
  5
18AF0
331
18AE8
  5
18AEC
331
18AE4
  5
18AE8
331
18AE0
  5
18AE4
331
18EEA
  5
19B34
331
18EE6
  5
18EEB
331
18EE2
  5
18EE7
331
19B48
  5
19CDD
331
18ADC
  5
18AE0
331
18B17
  5
18B27
331
18AD4
  5
18AD8
331
18B13
  5
18B17
331
18EDE
  5
18EE3
331
18B37
  5
18B3B
331
18B33
  5
18B37
331
18E92
  5
18EE2
331
18B0F
  5
18B13
331
18B0B
  5
18B0F
331
18B07
  5
18B0B
331
18B03
  5
18B07
331
18B2F
  5
18B33
331
18B2B
  5
18B2F
331
18B5C
  5
18EDF
331
18B27
  5
18B2B
331
18B46
  5
18B4B
331
18B4C
  5
18E90
331
18B42
  5
18B47
331
18B48
  5
18B4D
331
18AFF
  5
18B03
331
18AFB
  5
18AFF
331
18AF7
  5
18AFB
331
18AF3
  5
18AF7
331
18B3E
  5
18B42
331
18B3A
  5
18B3E
331
19B35
  5
19B56
331
18AEF
  5
18AF3
331
18AEB
  5
18AEF
331
18AE7
  5
18AEB
331
18AE3
  5
18AE7
331
18EE9
  5
19B33
331
19B83
  5
19CE2
331
18EE5
  5
18EEA
331
18EE1
  5
18EE6
  0
SORTENTSTABLE
  5
19FA0
102
{ACAD_REACTORS
330
19F9F
102
}
330
19F9F
100
AcDbSortentsTable
330
19F99
  0
ACDBDETAILVIEWSTYLE
  5
19A89
102
{ACAD_XDICTIONARY
360
19D04
102
}
102
{ACAD_REACTORS
330
18CCC
102
}
330
18CCC
100
AcDbModelDocViewStyle
 70
     0
  3

290
     0
100
AcDbDetailViewStyle
 70
     0
 71
     0
 90
        3
 71
     1
340
11
 62
    30
 40
0.24
340
18D36
 62
     3
 40
0.24
300

 40
0.36
280
     2
 71
     2
340
16
 90
       25
 62
   256
 71
     3
340
11
 62
    30
 40
0.24
 90
        1
 40
0.75
 90
        1
300
%<\AcVar ViewType \f "%tc1">% %<\AcVar ViewDetailId>%\PSCALE %<\AcVar ViewScale \f "%sn">%
 71
     4
340
16
 90
       25
 62
   256
340
16
 90
       25
 62
   256
280
     0
  0
ACDBDETAILVIEWSTYLE
  5
18CCD
102
{ACAD_XDICTIONARY
360
19D02
102
}
102
{ACAD_REACTORS
330
18CCC
102
}
330
18CCC
100
AcDbModelDocViewStyle
 70
     0
  3
Imperial24
290
     0
100
AcDbDetailViewStyle
 70
     0
 71
     0
 90
        3
 71
     1
340
11
 62
   256
 40
0.24
340
0
 62
   256
 40
0.24
300

 40
0.36
280
     3
 71
     2
340
16
 90
       25
 62
   256
 71
     3
340
11
 62
   256
 40
0.24
 90
        1
 40
0.75
 90
        1
300
%<\AcVar ViewType \f "%tc1">% %<\AcVar ViewDetailId>%\PSCALE %<\AcVar ViewScale \f "%sn">%
 71
     4
340
16
 90
       25
 62
   256
340
16
 90
       25
 62
   256
280
     0
  0
IMAGEDEF
  5
19B2F
102
{ACAD_REACTORS
330
19B2E
102
}
330
19B2E
100
AcDbRasterImageDef
 90
        0
  1
C:\Users\chris yuravich\Desktop\CAD.Branding-MFG-HAP-2.jpg
 10
805.0
 20
345.0
 11
0.0846666666666667
 21
0.0846666666666667
280
     1
281
     5
  0
LAYOUT
  5
10240
102
{ACAD_XDICTIONARY
360
18BDE
102
}
102
{ACAD_REACTORS
330
1A
102
}
330
1A
100
AcDbPlotSettings
  1

  2
Adobe PDF
  4
User32767
  6

 40
3.174999952316281
 41
3.174999952316281
 42
3.175003051757812
 43
3.17498779296875
 44
215.9000091552734
 45
279.3999938964844
 46
-2.285999999999999
 47
-2.793999999999999
 48
0.0
 49
0.0
140
0.0
141
0.0
142
1.0
143
1.0
 70
   692
 72
     0
 73
     0
 74
     1
  7
acad.ctb
 75
    16
147
1.0
 76
     1
 77
     2
 78
   300
148
8.508407062957637
149
12.42589530698018
100
AcDbLayout
  1
Cloverleaf
 70
     1
 71
     1
 10
-0.3699766541446425
 20
-0.5042084747754514
 11
8.130023706299192
 21
10.49579128492866
 12
0.0
 22
0.0
 32
0.0
 14
-0.3345686127918057
 24
-0.4894379416570516
 34
-0.0015258207003583
 15
8.095912701654384
 25
10.48689543670056
 35
0.0000000349246037
146
0.0
 13
0.0
 23
0.0
 33
0.0
 16
1.0
 26
0.0
 36
0.0
 17
0.0
 27
1.0
 37
0.0
 76
     0
330
10216
331
10217
  0
LAYOUT
  5
22
102
{ACAD_XDICTIONARY
360
18CAA
102
}
102
{ACAD_REACTORS
330
1A
102
}
330
1A
100
AcDbPlotSettings
  1

  2
none_device
  4
ANSI_A_(8.50_x_11.00_Inches)
  6

 40
6.349999904632567
 41
19.04999923706055
 42
6.350006103515625
 43
19.04998779296875
 44
215.8999938964844
 45
279.3999938964844
 46
0.0
 47
0.0
 48
0.0
 49
0.0
140
0.0
141
0.0
142
1.0
143
2.584895464708373
 70
 11952
 72
     0
 73
     1
 74
     0
  7

 75
     0
147
0.3868628397755418
 76
     0
 77
     2
 78
   300
148
0.0
149
0.0
100
AcDbLayout
  1
Model
 70
     1
 71
     0
 10
0.0
 20
0.0
 11
12.0
 21
9.0
 12
0.0
 22
0.0
 32
0.0
 14
0.0
 24
0.0
 34
0.0
 15
0.0
 25
0.0
 35
0.0
146
0.0
 13
0.0
 23
0.0
 33
0.0
 16
1.0
 26
0.0
 36
0.0
 17
0.0
 27
1.0
 37
0.0
 76
     0
330
1F
331
18B6A
  0
MATERIAL
  5
18B91
102
{ACAD_XDICTIONARY
360
18B92
102
}
102
{ACAD_REACTORS
330
13332
102
}
330
13332
100
AcDbMaterial
  1
ByBlock
 72
     0
 43
0.0208333333333333
 43
0.0
 43
0.0
 43
0.0
 43
0.0
 43
0.0208333333333333
 43
0.0
 43
0.0
 43
0.0
 43
0.0
 43
1.0
 43
0.0
 43
0.0
 43
0.0
 43
0.0
 43
1.0
 77
     0
 47
0.0208333333333333
 47
0.0
 47
0.0
 47
0.0
 47
0.0
 47
0.0208333333333333
 47
0.0
 47
0.0
 47
0.0
 47
0.0
 47
1.0
 47
0.0
 47
0.0
 47
0.0
 47
0.0
 47
1.0
171
     0
 49
0.0208333333333333
 49
0.0
 49
0.0
 49
0.0
 49
0.0
 49
0.0208333333333333
 49
0.0
 49
0.0
 49
0.0
 49
0.0
 49
1.0
 49
0.0
 49
0.0
 49
0.0
 49
0.0
 49
1.0
175
     0
142
0.0208333333333333
142
0.0
142
0.0
142
0.0
142
0.0
142
0.0208333333333333
142
0.0
142
0.0
142
0.0
142
0.0
142
1.0
142
0.0
142
0.0
142
0.0
142
0.0
142
1.0
179
     0
144
0.0208333333333333
144
0.0
144
0.0
144
0.0
144
0.0
144
0.0208333333333333
144
0.0
144
0.0
144
0.0
144
0.0
144
1.0
144
0.0
144
0.0
144
0.0
144
0.0
144
1.0
147
0.0208333333333333
147
0.0
147
0.0
147
0.0
147
0.0
147
0.0208333333333333
147
0.0
147
0.0
147
0.0
147
0.0
147
1.0
147
0.0
147
0.0
147
0.0
147
0.0
147
1.0
  0
MATERIAL
  5
18B89
102
{ACAD_XDICTIONARY
360
18B8A
102
}
102
{ACAD_REACTORS
330
13332
102
}
330
13332
100
AcDbMaterial
  1
ByLayer
 72
     0
 43
0.0208333333333333
 43
0.0
 43
0.0
 43
0.0
 43
0.0
 43
0.0208333333333333
 43
0.0
 43
0.0
 43
0.0
 43
0.0
 43
1.0
 43
0.0
 43
0.0
 43
0.0
 43
0.0
 43
1.0
 77
     0
 47
0.0208333333333333
 47
0.0
 47
0.0
 47
0.0
 47
0.0
 47
0.0208333333333333
 47
0.0
 47
0.0
 47
0.0
 47
0.0
 47
1.0
 47
0.0
 47
0.0
 47
0.0
 47
0.0
 47
1.0
171
     0
 49
0.0208333333333333
 49
0.0
 49
0.0
 49
0.0
 49
0.0
 49
0.0208333333333333
 49
0.0
 49
0.0
 49
0.0
 49
0.0
 49
1.0
 49
0.0
 49
0.0
 49
0.0
 49
0.0
 49
1.0
175
     0
142
0.0208333333333333
142
0.0
142
0.0
142
0.0
142
0.0
142
0.0208333333333333
142
0.0
142
0.0
142
0.0
142
0.0
142
1.0
142
0.0
142
0.0
142
0.0
142
0.0
142
1.0
179
     0
144
0.0208333333333333
144
0.0
144
0.0
144
0.0
144
0.0
144
0.0208333333333333
144
0.0
144
0.0
144
0.0
144
0.0
144
1.0
144
0.0
144
0.0
144
0.0
144
0.0
144
1.0
147
0.0208333333333333
147
0.0
147
0.0
147
0.0
147
0.0
147
0.0208333333333333
147
0.0
147
0.0
147
0.0
147
0.0
147
1.0
147
0.0
147
0.0
147
0.0
147
0.0
147
1.0
  0
MATERIAL
  5
18B99
102
{ACAD_XDICTIONARY
360
18B9A
102
}
102
{ACAD_REACTORS
330
13332
102
}
330
13332
100
AcDbMaterial
  1
Global
 72
     0
 43
0.0208333333333333
 43
0.0
 43
0.0
 43
0.0
 43
0.0
 43
0.0208333333333333
 43
0.0
 43
0.0
 43
0.0
 43
0.0
 43
1.0
 43
0.0
 43
0.0
 43
0.0
 43
0.0
 43
1.0
 77
     0
 47
0.0208333333333333
 47
0.0
 47
0.0
 47
0.0
 47
0.0
 47
0.0208333333333333
 47
0.0
 47
0.0
 47
0.0
 47
0.0
 47
1.0
 47
0.0
 47
0.0
 47
0.0
 47
0.0
 47
1.0
171
     0
 49
0.0208333333333333
 49
0.0
 49
0.0
 49
0.0
 49
0.0
 49
0.0208333333333333
 49
0.0
 49
0.0
 49
0.0
 49
0.0
 49
1.0
 49
0.0
 49
0.0
 49
0.0
 49
0.0
 49
1.0
175
     0
142
0.0208333333333333
142
0.0
142
0.0
142
0.0
142
0.0
142
0.0208333333333333
142
0.0
142
0.0
142
0.0
142
0.0
142
1.0
142
0.0
142
0.0
142
0.0
142
0.0
142
1.0
179
     0
144
0.0208333333333333
144
0.0
144
0.0
144
0.0
144
0.0
144
0.0208333333333333
144
0.0
144
0.0
144
0.0
144
0.0
144
1.0
144
0.0
144
0.0
144
0.0
144
0.0
144
1.0
147
0.0208333333333333
147
0.0
147
0.0
147
0.0
147
0.0
147
0.0208333333333333
147
0.0
147
0.0
147
0.0
147
0.0
147
1.0
147
0.0
147
0.0
147
0.0
147
0.0
147
1.0
  0
MLEADERSTYLE
  5
18BCF
102
{ACAD_REACTORS
330
18BCE
102
}
330
18BCE
100
AcDbMLeaderStyle
179
     2
170
     2
171
     1
172
     0
 90
        2
 40
0.0
 41
0.0
173
     1
 91
-1056964608
340
14
 92
       -2
290
     1
 42
0.09
291
     1
 43
0.36
  3
Standard
 44
0.18
300

342
11
174
     1
178
     6
175
     1
176
     0
 93
-1056964608
 45
0.18
292
     0
297
     0
 46
0.18
 94
-1056964608
 47
1.0
 49
1.0
140
1.0
293
     1
141
0.0
294
     1
177
     0
142
1.0
295
     0
296
     0
143
0.125
271
     0
272
     9
273
     9
298
     0
  0
MLINESTYLE
  5
18
102
{ACAD_REACTORS
330
17
102
}
330
17
100
AcDbMlineStyle
  2
STANDARD
 70
     0
  3

 62
   256
 51
90.0
 52
90.0
 71
     2
 49
0.5
 62
   256
  6
BYLAYER
 49
-0.5
 62
   256
  6
BYLAYER
  0
ACDBPLACEHOLDER
  5
F
102
{ACAD_REACTORS
330
E
102
}
330
E
  0
SCALE
  5
18BBD
102
{ACAD_REACTORS
330
18BBC
102
}
330
18BBC
100
AcDbScale
 70
     0
300
1:1
140
1.0
141
1.0
290
     1
  0
SCALE
  5
18BBE
102
{ACAD_REACTORS
330
18BBC
102
}
330
18BBC
100
AcDbScale
 70
     0
300
1/128" = 1'-0"
140
0.0078125
141
12.0
290
     0
  0
SCALE
  5
18BBF
102
{ACAD_REACTORS
330
18BBC
102
}
330
18BBC
100
AcDbScale
 70
     0
300
1/64" = 1'-0"
140
0.015625
141
12.0
290
     0
  0
SCALE
  5
18BC0
102
{ACAD_REACTORS
330
18BBC
102
}
330
18BBC
100
AcDbScale
 70
     0
300
1/32" = 1'-0"
140
0.03125
141
12.0
290
     0
  0
SCALE
  5
18BC1
102
{ACAD_REACTORS
330
18BBC
102
}
330
18BBC
100
AcDbScale
 70
     0
300
1/16" = 1'-0"
140
0.0625
141
12.0
290
     0
  0
SCALE
  5
18BC2
102
{ACAD_REACTORS
330
18BBC
102
}
330
18BBC
100
AcDbScale
 70
     0
300
3/32" = 1'-0"
140
0.09375
141
12.0
290
     0
  0
SCALE
  5
18BC3
102
{ACAD_REACTORS
330
18BBC
102
}
330
18BBC
100
AcDbScale
 70
     0
300
1/8" = 1'-0"
140
0.125
141
12.0
290
     0
  0
SCALE
  5
18BC4
102
{ACAD_REACTORS
330
18BBC
102
}
330
18BBC
100
AcDbScale
 70
     0
300
3/16" = 1'-0"
140
0.1875
141
12.0
290
     0
  0
SCALE
  5
18BC5
102
{ACAD_REACTORS
330
18BBC
102
}
330
18BBC
100
AcDbScale
 70
     0
300
1/4" = 1'-0"
140
0.25
141
12.0
290
     0
  0
SCALE
  5
18BC6
102
{ACAD_REACTORS
330
18BBC
102
}
330
18BBC
100
AcDbScale
 70
     0
300
3/8" = 1'-0"
140
0.375
141
12.0
290
     0
  0
SCALE
  5
18BC7
102
{ACAD_REACTORS
330
18BBC
102
}
330
18BBC
100
AcDbScale
 70
     0
300
1/2" = 1'-0"
140
0.5
141
12.0
290
     0
  0
SCALE
  5
18BC8
102
{ACAD_REACTORS
330
18BBC
102
}
330
18BBC
100
AcDbScale
 70
     0
300
3/4" = 1'-0"
140
0.75
141
12.0
290
     0
  0
SCALE
  5
18BC9
102
{ACAD_REACTORS
330
18BBC
102
}
330
18BBC
100
AcDbScale
 70
     0
300
1" = 1'-0"
140
1.0
141
12.0
290
     0
  0
SCALE
  5
18BCA
102
{ACAD_REACTORS
330
18BBC
102
}
330
18BBC
100
AcDbScale
 70
     0
300
1-1/2" = 1'-0"
140
1.5
141
12.0
290
     0
  0
SCALE
  5
18BCB
102
{ACAD_REACTORS
330
18BBC
102
}
330
18BBC
100
AcDbScale
 70
     0
300
3" = 1'-0"
140
3.0
141
12.0
290
     0
  0
SCALE
  5
18BCC
102
{ACAD_REACTORS
330
18BBC
102
}
330
18BBC
100
AcDbScale
 70
     0
300
6" = 1'-0"
140
6.0
141
12.0
290
     0
  0
SCALE
  5
18BCD
102
{ACAD_REACTORS
330
18BBC
102
}
330
18BBC
100
AcDbScale
 70
     0
300
1'-0" = 1'-0"
140
12.0
141
12.0
290
     0
  0
ACDBSECTIONVIEWSTYLE
  5
19A8E
102
{ACAD_XDICTIONARY
360
19A8F
102
}
102
{ACAD_REACTORS
330
18CCA
102
}
330
18CCA
100
AcDbModelDocViewStyle
 70
     0
  3

290
     0
100
AcDbSectionViewStyle
 70
     0
 71
     0
 90
       78
 71
     1
340
11
 62
    30
 40
0.24
340
0
340
0
 62
     7
 40
0.24
300
I,O,Q,S,X,Z
 40
0.4
 90
        3
 40
0.12
 90
        1
 71
     2
340
18CE7
 90
       -1
 62
     7
340
18CE7
 90
       30
 62
     7
 40
0.4
 40
0.0
 40
0.4
 71
     3
340
11
 62
    30
 40
0.24
 90
        0
 40
0.18
 90
        1
300
%<\AcVar ViewType \f "%tc1">% %<\AcVar ViewSectionStartId>%-%<\AcVar ViewSectionEndId>%
 71
     4
 62
   256
 62
   257
300
ANSI31
 40
1.0
 90
        0
290
     0
290
     0
 90
        6
 40
0.0
 40
1.570796326794896
 40
0.2617993877991494
 40
1.308996938995747
 40
-0.2617993877991494
 40
1.832595714594045
  0
ACDBSECTIONVIEWSTYLE
  5
18CCB
102
{ACAD_XDICTIONARY
360
19D00
102
}
102
{ACAD_REACTORS
330
18CCA
102
}
330
18CCA
100
AcDbModelDocViewStyle
 70
     0
  3
Imperial24
290
     0
100
AcDbSectionViewStyle
 70
     0
 71
     0
 90
       78
 71
     1
340
11
 62
   256
 40
0.24
340
0
340
0
 62
   256
 40
0.24
300
I, O, Q, S, X, Z
 40
0.48
 90
        3
 40
0.18
 90
        1
 71
     2
340
16
 90
       25
 62
   256
340
16
 90
       50
 62
   256
 40
0.24
 40
0.0
 40
0.24
 71
     3
340
11
 62
   256
 40
0.24
 90
        1
 40
0.75
 90
        1
300
%<\AcVar ViewType \f "%tc1">% %<\AcVar ViewSectionStartId>%-%<\AcVar ViewSectionEndId>%\PSCALE %<\AcVar ViewScale \f "%sn">%
 71
     4
 62
   256
 62
   257
300
ANSI31
 40
1.0
 90
        0
290
     0
290
     0
 90
        6
 40
0.0
 40
1.570796326794896
 40
0.2617993877991494
 40
1.308996938995747
 40
-0.2617993877991494
 40
1.832595714594045
  0
TABLESTYLE
  5
18BBB
102
{ACAD_XDICTIONARY
360
18EF7
102
}
102
{ACAD_REACTORS
330
18BBA
102
}
330
18BBA
100
AcDbTableStyle
280
     0
  3
Standard
 70
     0
 71
     0
 40
0.06
 41
0.06
280
     0
281
     0
  7
Standard
140
0.18
170
     2
 62
     0
 63
     7
283
     0
 90
      512
 91
        0
  1

274
    -2
284
     1
 64
     0
275
    -2
285
     1
 65
     0
276
    -2
286
     1
 66
     0
277
    -2
287
     1
 67
     0
278
    -2
288
     1
 68
     0
279
    -2
289
     1
 69
     0
  7
Standard
140
0.25
170
     5
 62
     0
 63
     7
283
     0
 90
      512
 91
        0
  1

274
    -2
284
     1
 64
     0
275
    -2
285
     1
 65
     0
276
    -2
286
     1
 66
     0
277
    -2
287
     1
 67
     0
278
    -2
288
     1
 68
     0
279
    -2
289
     1
 69
     0
  7
Standard
140
0.18
170
     5
 62
     0
 63
     7
283
     0
 90
      512
 91
        0
  1

274
    -2
284
     1
 64
     0
275
    -2
285
     1
 65
     0
276
    -2
286
     1
 66
     0
277
    -2
287
     1
 67
     0
278
    -2
288
     1
 68
     0
279
    -2
289
     1
 69
     0
  0
VISUALSTYLE
  5
18BA7
102
{ACAD_REACTORS
330
18BA1
102
}
330
18BA1
100
AcDbVisualStyle
  2
2dWireframe
 70
     4
177
     3
291
     0
 70
    58
 90
        0
176
     1
 90
        2
176
     1
 90
        0
176
     1
 90
        0
176
     1
 40
0.6
176
     1
 40
30.0
176
     1
 62
     7
420
 16777215
176
     1
 90
        1
176
     1
 90
        4
176
     1
 62
     7
176
     1
 62
   257
176
     1
 90
        1
176
     1
 90
        1
176
     1
 40
1.0
176
     1
 90
        0
176
     1
 62
   257
176
     1
 40
1.0
176
     1
 90
        1
176
     1
 90
        6
176
     1
 90
        2
176
     1
 62
     7
176
     1
 90
        5
176
     1
 90
        0
176
     1
 90
        0
176
     1
290
     0
176
     1
 90
        1
176
     1
 40
0.0
176
     1
 90
        0
176
     1
290
     1
176
     1
290
     1
176
     1
290
     0
176
     1
290
     0
176
     1
290
     0
176
     1
290
     0
176
     1
290
     0
176
     1
290
     0
176
     1
290
     0
176
     1
 90
       50
176
     1
 40
0.0
176
     1
 40
1.0
176
     1
 90
        0
176
     1
 62
    18
176
     1
 90
       50
176
     1
 90
        3
176
     1
 62
     5
420
      255
176
     1
290
     0
176
     1
 90
       50
176
     1
 90
       50
176
     1
 90
       50
176
     1
290
     0
176
     1
 90
       50
176
     1
 62
   256
176
     0
 40
1.0
176
     0
 90
        2
176
     1
  1
strokes_ogs.tif
176
     1
290
     0
176
     1
 40
1.0
176
     1
 40
1.0
176
     1
  0
VISUALSTYLE
  5
18BA6
102
{ACAD_REACTORS
330
18BA1
102
}
330
18BA1
100
AcDbVisualStyle
  2
Basic
 70
     7
177
     3
291
     1
 70
    58
 90
        1
176
     1
 90
        0
176
     1
 90
        1
176
     1
 90
        0
176
     1
 40
0.6
176
     1
 40
30.0
176
     1
 62
     7
420
 16777215
176
     1
 90
        0
176
     1
 90
        4
176
     1
 62
     7
176
     1
 62
   257
176
     1
 90
        1
176
     1
 90
        1
176
     1
 40
1.0
176
     1
 90
        8
176
     1
 62
     7
176
     1
 40
1.0
176
     1
 90
        1
176
     1
 90
        6
176
     1
 90
        2
176
     1
 62
     7
176
     1
 90
        5
176
     1
 90
        0
176
     1
 90
        0
176
     1
290
     0
176
     1
 90
        1
176
     1
 40
0.0
176
     1
 90
        0
176
     1
290
     0
176
     1
290
     1
176
     1
290
     1
176
     1
290
     0
176
     1
290
     0
176
     1
290
     0
176
     1
290
     0
176
     1
290
     0
176
     1
290
     0
176
     1
 90
       50
176
     1
 40
0.0
176
     1
 40
1.0
176
     1
 90
        0
176
     1
 62
    18
176
     1
 90
       50
176
     1
 90
        3
176
     1
 62
     5
420
      255
176
     1
290
     0
176
     1
 90
       50
176
     1
 90
       50
176
     1
 90
       50
176
     1
290
     0
176
     1
 90
       50
176
     1
 62
   256
176
     0
 40
1.0
176
     0
 90
        2
176
     1
  1
strokes_ogs.tif
176
     1
290
     0
176
     1
 40
1.0
176
     1
 40
1.0
176
     1
  0
VISUALSTYLE
  5
18BAD
102
{ACAD_REACTORS
330
18BA1
102
}
330
18BA1
100
AcDbVisualStyle
  2
Brighten
 70
    12
177
     3
291
     1
 70
    58
 90
        2
176
     1
 90
        2
176
     1
 90
        0
176
     1
 90
        0
176
     1
 40
0.6
176
     1
 40
30.0
176
     1
 62
     7
420
 16777215
176
     1
 90
        1
176
     1
 90
        4
176
     1
 62
     7
176
     1
 62
   257
176
     1
 90
        1
176
     1
 90
        1
176
     1
 40
1.0
176
     1
 90
        8
176
     1
 62
     7
176
     1
 40
1.0
176
     1
 90
        1
176
     1
 90
        6
176
     1
 90
        2
176
     1
 62
     7
176
     1
 90
        5
176
     1
 90
        0
176
     1
 90
        0
176
     1
290
     0
176
     1
 90
        1
176
     1
 40
50.0
176
     1
 90
        0
176
     1
290
     0
176
     1
290
     1
176
     1
290
     1
176
     1
290
     0
176
     1
290
     0
176
     1
290
     0
176
     1
290
     0
176
     1
290
     0
176
     1
290
     0
176
     1
 90
       50
176
     1
 40
0.0
176
     1
 40
1.0
176
     1
 90
        0
176
     1
 62
    18
176
     1
 90
       50
176
     1
 90
        3
176
     1
 62
     5
420
      255
176
     1
290
     0
176
     1
 90
       50
176
     1
 90
       50
176
     1
 90
       50
176
     1
290
     0
176
     1
 90
       50
176
     1
 62
   256
176
     0
 40
1.0
176
     0
 90
        2
176
     1
  1
strokes_ogs.tif
176
     1
290
     0
176
     1
 40
1.0
176
     1
 40
1.0
176
     1
  0
VISUALSTYLE
  5
18BB1
102
{ACAD_REACTORS
330
18BA1
102
}
330
18BA1
100
AcDbVisualStyle
  2
ColorChange
 70
    16
177
     3
291
     1
 70
    58
 90
        2
176
     1
 90
        2
176
     1
 90
        3
176
     1
 90
        0
176
     1
 40
0.6
176
     1
 40
30.0
176
     1
 62
     8
420
  8421504
176
     1
 90
        1
176
     1
 90
        4
176
     1
 62
     7
176
     1
 62
   257
176
     1
 90
        1
176
     1
 90
        1
176
     1
 40
1.0
176
     1
 90
        8
176
     1
 62
     8
420
  8421504
176
     1
 40
1.0
176
     1
 90
        1
176
     1
 90
        6
176
     1
 90
        2
176
     1
 62
     7
176
     1
 90
        5
176
     1
 90
        0
176
     1
 90
        0
176
     1
290
     0
176
     1
 90
        1
176
     1
 40
0.0
176
     1
 90
        0
176
     1
290
     0
176
     1
290
     1
176
     1
290
     1
176
     1
290
     0
176
     1
290
     0
176
     1
290
     0
176
     1
290
     0
176
     1
290
     0
176
     1
290
     0
176
     1
 90
       50
176
     1
 40
0.0
176
     1
 40
1.0
176
     1
 90
        0
176
     1
 62
    18
176
     1
 90
       50
176
     1
 90
        3
176
     1
 62
     5
420
      255
176
     1
290
     0
176
     1
 90
       50
176
     1
 90
       50
176
     1
 90
       50
176
     1
290
     0
176
     1
 90
       50
176
     1
 62
   256
176
     0
 40
1.0
176
     0
 90
        2
176
     1
  1
strokes_ogs.tif
176
     1
290
     0
176
     1
 40
1.0
176
     1
 40
1.0
176
     1
  0
VISUALSTYLE
  5
18BAA
102
{ACAD_REACTORS
330
18BA1
102
}
330
18BA1
100
AcDbVisualStyle
  2
Conceptual
 70
     9
177
     3
291
     0
 70
    58
 90
        3
176
     1
 90
        2
176
     1
 90
        0
176
     1
 90
        0
176
     1
 40
0.6
176
     1
 40
30.0
176
     1
 62
     7
420
 16777215
176
     1
 90
        2
176
     1
 90
        2
176
     1
 62
     7
176
     1
 62
   257
176
     1
 90
        1
176
     1
 90
        1
176
     1
 40
179.0
176
     1
 90
        8
176
     1
 62
     7
176
     1
 40
1.0
176
     1
 90
        1
176
     1
 90
        6
176
     1
 90
        2
176
     1
 62
     7
176
     1
 90
        3
176
     1
 90
        0
176
     1
 90
        0
176
     1
290
     0
176
     1
 90
        1
176
     1
 40
0.0
176
     1
 90
        0
176
     1
290
     0
176
     1
290
     1
176
     1
290
     1
176
     1
290
     0
176
     1
290
     0
176
     1
290
     0
176
     1
290
     0
176
     1
290
     0
176
     1
290
     0
176
     1
 90
       50
176
     1
 40
0.0
176
     1
 40
1.0
176
     1
 90
        0
176
     1
 62
    18
176
     1
 90
       50
176
     1
 90
        3
176
     1
 62
     5
420
      255
176
     1
290
     0
176
     1
 90
       50
176
     1
 90
       50
176
     1
 90
       50
176
     1
290
     0
176
     1
 90
       50
176
     1
 62
   256
176
     0
 40
1.0
176
     0
 90
        2
176
     1
  1
strokes_ogs.tif
176
     1
290
     0
176
     1
 40
1.0
176
     1
 40
1.0
176
     1
  0
VISUALSTYLE
  5
18BAC
102
{ACAD_REACTORS
330
18BA1
102
}
330
18BA1
100
AcDbVisualStyle
  2
Dim
 70
    11
177
     3
291
     1
 70
    58
 90
        2
176
     1
 90
        2
176
     1
 90
        0
176
     1
 90
        0
176
     1
 40
0.6
176
     1
 40
30.0
176
     1
 62
     7
420
 16777215
176
     1
 90
        1
176
     1
 90
        4
176
     1
 62
     7
176
     1
 62
   257
176
     1
 90
        1
176
     1
 90
        1
176
     1
 40
1.0
176
     1
 90
        8
176
     1
 62
     7
176
     1
 40
1.0
176
     1
 90
        1
176
     1
 90
        6
176
     1
 90
        2
176
     1
 62
     7
176
     1
 90
        5
176
     1
 90
        0
176
     1
 90
        0
176
     1
290
     0
176
     1
 90
        1
176
     1
 40
-50.0
176
     1
 90
        0
176
     1
290
     0
176
     1
290
     1
176
     1
290
     1
176
     1
290
     0
176
     1
290
     0
176
     1
290
     0
176
     1
290
     0
176
     1
290
     0
176
     1
290
     0
176
     1
 90
       50
176
     1
 40
0.0
176
     1
 40
1.0
176
     1
 90
        0
176
     1
 62
    18
176
     1
 90
       50
176
     1
 90
        3
176
     1
 62
     5
420
      255
176
     1
290
     0
176
     1
 90
       50
176
     1
 90
       50
176
     1
 90
       50
176
     1
290
     0
176
     1
 90
       50
176
     1
 62
   256
176
     0
 40
1.0
176
     0
 90
        2
176
     1
  1
strokes_ogs.tif
176
     1
290
     0
176
     1
 40
1.0
176
     1
 40
1.0
176
     1
  0
VISUALSTYLE
  5
18BB9
102
{ACAD_REACTORS
330
18BA1
102
}
330
18BA1
100
AcDbVisualStyle
  2
EdgeColorOff
 70
    22
177
     3
291
     1
 70
    58
 90
        2
176
     0
 90
        2
176
     0
 90
        0
176
     0
 90
        0
176
     0
 40
0.6
176
     0
 40
30.0
176
     0
 62
     7
420
 16777215
176
     0
 90
        1
176
     0
 90
        4
176
     0
 62
     7
176
     0
 62
   257
176
     0
 90
        1
176
     0
 90
        1
176
     0
 40
1.0
176
     0
 90
        8
176
     2
 62
     7
176
     0
 40
1.0
176
     0
 90
        1
176
     0
 90
        6
176
     0
 90
        2
176
     0
 62
     7
176
     0
 90
        5
176
     0
 90
        0
176
     0
 90
        0
176
     0
290
     0
176
     0
 90
        1
176
     0
 40
0.0
176
     0
 90
        0
176
     0
290
     0
176
     1
290
     1
176
     1
290
     1
176
     1
290
     0
176
     1
290
     0
176
     1
290
     0
176
     1
290
     0
176
     1
290
     0
176
     1
290
     0
176
     1
 90
       50
176
     1
 40
0.0
176
     1
 40
1.0
176
     1
 90
        0
176
     1
 62
    18
176
     1
 90
       50
176
     1
 90
        3
176
     1
 62
     5
420
      255
176
     1
290
     0
176
     1
 90
       50
176
     1
 90
       50
176
     1
 90
       50
176
     1
290
     0
176
     1
 90
       50
176
     1
 62
   256
176
     0
 40
1.0
176
     0
 90
        2
176
     1
  1
strokes_ogs.tif
176
     1
290
     0
176
     1
 40
1.0
176
     1
 40
1.0
176
     1
  0
VISUALSTYLE
  5
18BB0
102
{ACAD_REACTORS
330
18BA1
102
}
330
18BA1
100
AcDbVisualStyle
  2
Facepattern
 70
    15
177
     3
291
     1
 70
    58
 90
        2
176
     1
 90
        2
176
     1
 90
        0
176
     1
 90
        0
176
     1
 40
0.6
176
     1
 40
30.0
176
     1
 62
     7
420
 16777215
176
     1
 90
        1
176
     1
 90
        4
176
     1
 62
     7
176
     1
 62
   257
176
     1
 90
        1
176
     1
 90
        1
176
     1
 40
1.0
176
     1
 90
        8
176
     1
 62
     7
176
     1
 40
1.0
176
     1
 90
        1
176
     1
 90
        6
176
     1
 90
        2
176
     1
 62
     7
176
     1
 90
        5
176
     1
 90
        0
176
     1
 90
        0
176
     1
290
     0
176
     1
 90
        1
176
     1
 40
0.0
176
     1
 90
        0
176
     1
290
     0
176
     1
290
     1
176
     1
290
     1
176
     1
290
     0
176
     1
290
     0
176
     1
290
     0
176
     1
290
     0
176
     1
290
     0
176
     1
290
     0
176
     1
 90
       50
176
     1
 40
0.0
176
     1
 40
1.0
176
     1
 90
        0
176
     1
 62
    18
176
     1
 90
       50
176
     1
 90
        3
176
     1
 62
     5
420
      255
176
     1
290
     0
176
     1
 90
       50
176
     1
 90
       50
176
     1
 90
       50
176
     1
290
     0
176
     1
 90
       50
176
     1
 62
   256
176
     0
 40
1.0
176
     0
 90
        2
176
     1
  1
strokes_ogs.tif
176
     1
290
     0
176
     1
 40
1.0
176
     1
 40
1.0
176
     1
  0
VISUALSTYLE
  5
18BA2
102
{ACAD_REACTORS
330
18BA1
102
}
330
18BA1
100
AcDbVisualStyle
  2
Flat
 70
     0
177
     3
291
     1
 70
    58
 90
        2
176
     1
 90
        1
176
     1
 90
        1
176
     1
 90
        2
176
     1
 40
0.6
176
     1
 40
30.0
176
     1
 62
     7
420
 16777215
176
     1
 90
        0
176
     1
 90
        0
176
     1
 62
     7
176
     1
 62
   257
176
     1
 90
        1
176
     1
 90
        1
176
     1
 40
1.0
176
     1
 90
        8
176
     1
 62
     7
176
     1
 40
1.0
176
     1
 90
        1
176
     1
 90
        6
176
     1
 90
        2
176
     1
 62
     7
176
     1
 90
        5
176
     1
 90
        0
176
     1
 90
        0
176
     1
290
     0
176
     1
 90
       13
176
     1
 40
0.0
176
     1
 90
        0
176
     1
290
     0
176
     1
290
     1
176
     1
290
     1
176
     1
290
     0
176
     1
290
     0
176
     1
290
     0
176
     1
290
     0
176
     1
290
     0
176
     1
290
     0
176
     1
 90
       50
176
     1
 40
0.0
176
     1
 40
1.0
176
     1
 90
        0
176
     1
 62
    18
176
     1
 90
       50
176
     1
 90
        3
176
     1
 62
     5
420
      255
176
     1
290
     0
176
     1
 90
       50
176
     1
 90
       50
176
     1
 90
       50
176
     1
290
     0
176
     1
 90
       50
176
     1
 62
   256
176
     0
 40
1.0
176
     0
 90
        2
176
     1
  1
strokes_ogs.tif
176
     1
290
     0
176
     1
 40
1.0
176
     1
 40
1.0
176
     1
  0
VISUALSTYLE
  5
18BA3
102
{ACAD_REACTORS
330
18BA1
102
}
330
18BA1
100
AcDbVisualStyle
  2
FlatWithEdges
 70
     1
177
     3
291
     1
 70
    58
 90
        2
176
     1
 90
        1
176
     1
 90
        1
176
     1
 90
        2
176
     1
 40
0.6
176
     1
 40
30.0
176
     1
 62
     7
420
 16777215
176
     1
 90
        1
176
     1
 90
        0
176
     1
 62
     7
176
     1
 62
   257
176
     1
 90
        1
176
     1
 90
        1
176
     1
 40
1.0
176
     1
 90
        0
176
     1
 62
   257
176
     1
 40
1.0
176
     1
 90
        1
176
     1
 90
        6
176
     1
 90
        2
176
     1
 62
     7
176
     1
 90
        5
176
     1
 90
        0
176
     1
 90
        0
176
     1
290
     0
176
     1
 90
       13
176
     1
 40
0.0
176
     1
 90
        0
176
     1
290
     0
176
     1
290
     1
176
     1
290
     1
176
     1
290
     0
176
     1
290
     0
176
     1
290
     0
176
     1
290
     0
176
     1
290
     0
176
     1
290
     0
176
     1
 90
       50
176
     1
 40
0.0
176
     1
 40
1.0
176
     1
 90
        0
176
     1
 62
    18
176
     1
 90
       50
176
     1
 90
        3
176
     1
 62
     5
420
      255
176
     1
290
     0
176
     1
 90
       50
176
     1
 90
       50
176
     1
 90
       50
176
     1
290
     0
176
     1
 90
       50
176
     1
 62
   256
176
     0
 40
1.0
176
     0
 90
        2
176
     1
  1
strokes_ogs.tif
176
     1
290
     0
176
     1
 40
1.0
176
     1
 40
1.0
176
     1
  0
VISUALSTYLE
  5
18BA4
102
{ACAD_REACTORS
330
18BA1
102
}
330
18BA1
100
AcDbVisualStyle
  2
Gouraud
 70
     2
177
     3
291
     1
 70
    58
 90
        2
176
     1
 90
        2
176
     1
 90
        1
176
     1
 90
        2
176
     1
 40
0.6
176
     1
 40
30.0
176
     1
 62
     7
420
 16777215
176
     1
 90
        0
176
     1
 90
        0
176
     1
 62
     7
176
     1
 62
   257
176
     1
 90
        1
176
     1
 90
        1
176
     1
 40
1.0
176
     1
 90
        0
176
     1
 62
     7
176
     1
 40
1.0
176
     1
 90
        1
176
     1
 90
        6
176
     1
 90
        2
176
     1
 62
     7
176
     1
 90
        5
176
     1
 90
        0
176
     1
 90
        0
176
     1
290
     0
176
     1
 90
       13
176
     1
 40
0.0
176
     1
 90
        0
176
     1
290
     0
176
     1
290
     1
176
     1
290
     1
176
     1
290
     0
176
     1
290
     0
176
     1
290
     0
176
     1
290
     0
176
     1
290
     0
176
     1
290
     0
176
     1
 90
       50
176
     1
 40
0.0
176
     1
 40
1.0
176
     1
 90
        0
176
     1
 62
    18
176
     1
 90
       50
176
     1
 90
        3
176
     1
 62
     5
420
      255
176
     1
290
     0
176
     1
 90
       50
176
     1
 90
       50
176
     1
 90
       50
176
     1
290
     0
176
     1
 90
       50
176
     1
 62
   256
176
     0
 40
1.0
176
     0
 90
        2
176
     1
  1
strokes_ogs.tif
176
     1
290
     0
176
     1
 40
1.0
176
     1
 40
1.0
176
     1
  0
VISUALSTYLE
  5
18BA5
102
{ACAD_REACTORS
330
18BA1
102
}
330
18BA1
100
AcDbVisualStyle
  2
GouraudWithEdges
 70
     3
177
     3
291
     1
 70
    58
 90
        2
176
     1
 90
        2
176
     1
 90
        1
176
     1
 90
        2
176
     1
 40
0.6
176
     1
 40
30.0
176
     1
 62
     7
420
 16777215
176
     1
 90
        1
176
     1
 90
        0
176
     1
 62
     7
176
     1
 62
   257
176
     1
 90
        1
176
     1
 90
        1
176
     1
 40
1.0
176
     1
 90
        0
176
     1
 62
   257
176
     1
 40
1.0
176
     1
 90
        1
176
     1
 90
        6
176
     1
 90
        2
176
     1
 62
     7
176
     1
 90
        5
176
     1
 90
        0
176
     1
 90
        0
176
     1
290
     0
176
     1
 90
       13
176
     1
 40
0.0
176
     1
 90
        0
176
     1
290
     0
176
     1
290
     1
176
     1
290
     1
176
     1
290
     0
176
     1
290
     0
176
     1
290
     0
176
     1
290
     0
176
     1
290
     0
176
     1
290
     0
176
     1
 90
       50
176
     1
 40
0.0
176
     1
 40
1.0
176
     1
 90
        0
176
     1
 62
    18
176
     1
 90
       50
176
     1
 90
        3
176
     1
 62
     5
420
      255
176
     1
290
     0
176
     1
 90
       50
176
     1
 90
       50
176
     1
 90
       50
176
     1
290
     0
176
     1
 90
       50
176
     1
 62
   256
176
     0
 40
1.0
176
     0
 90
        2
176
     1
  1
strokes_ogs.tif
176
     1
290
     0
176
     1
 40
1.0
176
     1
 40
1.0
176
     1
  0
VISUALSTYLE
  5
18BA9
102
{ACAD_REACTORS
330
18BA1
102
}
330
18BA1
100
AcDbVisualStyle
  2
Hidden
 70
     6
177
     3
291
     0
 70
    58
 90
        1
176
     1
 90
        2
176
     1
 90
        2
176
     1
 90
        0
176
     1
 40
0.6
176
     1
 40
30.0
176
     1
 62
     7
420
 16777215
176
     1
 90
        2
176
     1
 90
        2
176
     1
 62
     7
176
     1
 62
   257
176
     1
 90
        2
176
     1
 90
        1
176
     1
 40
40.0
176
     1
 90
        0
176
     1
 62
   257
176
     1
 40
1.0
176
     1
 90
        1
176
     1
 90
        6
176
     1
 90
        2
176
     1
 62
     7
176
     1
 90
        3
176
     1
 90
        0
176
     1
 90
        0
176
     1
290
     0
176
     1
 90
        1
176
     1
 40
0.0
176
     1
 90
        0
176
     1
290
     0
176
     1
290
     1
176
     1
290
     1
176
     1
290
     0
176
     1
290
     0
176
     1
290
     0
176
     1
290
     0
176
     1
290
     0
176
     1
290
     0
176
     1
 90
       50
176
     1
 40
0.0
176
     1
 40
1.0
176
     1
 90
        0
176
     1
 62
    18
176
     1
 90
       50
176
     1
 90
        3
176
     1
 62
     5
420
      255
176
     1
290
     0
176
     1
 90
       50
176
     1
 90
       50
176
     1
 90
       50
176
     1
290
     0
176
     1
 90
       50
176
     1
 62
   256
176
     0
 40
1.0
176
     0
 90
        2
176
     1
  1
strokes_ogs.tif
176
     1
290
     0
176
     1
 40
1.0
176
     1
 40
1.0
176
     1
  0
VISUALSTYLE
  5
18BB7
102
{ACAD_REACTORS
330
18BA1
102
}
330
18BA1
100
AcDbVisualStyle
  2
JitterOff
 70
    20
177
     3
291
     1
 70
    58
 90
        2
176
     0
 90
        2
176
     0
 90
        0
176
     0
 90
        0
176
     0
 40
0.6
176
     0
 40
30.0
176
     0
 62
     7
420
 16777215
176
     0
 90
        1
176
     0
 90
        4
176
     0
 62
     7
176
     0
 62
   257
176
     0
 90
        1
176
     0
 90
        1
176
     0
 40
1.0
176
     0
 90
       10
176
     2
 62
     7
176
     0
 40
1.0
176
     0
 90
        1
176
     0
 90
        6
176
     0
 90
        2
176
     0
 62
     7
176
     0
 90
        5
176
     0
 90
        0
176
     0
 90
        0
176
     0
290
     0
176
     0
 90
        1
176
     0
 40
0.0
176
     0
 90
        0
176
     0
290
     0
176
     1
290
     1
176
     1
290
     1
176
     1
290
     0
176
     1
290
     0
176
     1
290
     0
176
     1
290
     0
176
     1
290
     0
176
     1
290
     0
176
     1
 90
       50
176
     1
 40
0.0
176
     1
 40
1.0
176
     1
 90
        0
176
     1
 62
    18
176
     1
 90
       50
176
     1
 90
        3
176
     1
 62
     5
420
      255
176
     1
290
     0
176
     1
 90
       50
176
     1
 90
       50
176
     1
 90
       50
176
     1
290
     0
176
     1
 90
       50
176
     1
 62
   256
176
     0
 40
1.0
176
     0
 90
        2
176
     1
  1
strokes_ogs.tif
176
     1
290
     0
176
     1
 40
1.0
176
     1
 40
1.0
176
     1
  0
VISUALSTYLE
  5
18BAF
102
{ACAD_REACTORS
330
18BA1
102
}
330
18BA1
100
AcDbVisualStyle
  2
Linepattern
 70
    14
177
     3
291
     1
 70
    58
 90
        2
176
     1
 90
        2
176
     1
 90
        0
176
     1
 90
        0
176
     1
 40
0.6
176
     1
 40
30.0
176
     1
 62
     7
420
 16777215
176
     1
 90
        1
176
     1
 90
        4
176
     1
 62
     7
176
     1
 62
   257
176
     1
 90
        7
176
     1
 90
        7
176
     1
 40
1.0
176
     1
 90
        8
176
     1
 62
     7
176
     1
 40
1.0
176
     1
 90
        1
176
     1
 90
        6
176
     1
 90
        2
176
     1
 62
     7
176
     1
 90
        5
176
     1
 90
        0
176
     1
 90
        0
176
     1
290
     0
176
     1
 90
        1
176
     1
 40
0.0
176
     1
 90
        0
176
     1
290
     0
176
     1
290
     1
176
     1
290
     1
176
     1
290
     0
176
     1
290
     0
176
     1
290
     0
176
     1
290
     0
176
     1
290
     0
176
     1
290
     0
176
     1
 90
       50
176
     1
 40
0.0
176
     1
 40
1.0
176
     1
 90
        0
176
     1
 62
    18
176
     1
 90
       50
176
     1
 90
        3
176
     1
 62
     5
420
      255
176
     1
290
     0
176
     1
 90
       50
176
     1
 90
       50
176
     1
 90
       50
176
     1
290
     0
176
     1
 90
       50
176
     1
 62
   256
176
     0
 40
1.0
176
     0
 90
        2
176
     1
  1
strokes_ogs.tif
176
     1
290
     0
176
     1
 40
1.0
176
     1
 40
1.0
176
     1
  0
VISUALSTYLE
  5
18BB8
102
{ACAD_REACTORS
330
18BA1
102
}
330
18BA1
100
AcDbVisualStyle
  2
OverhangOff
 70
    21
177
     3
291
     1
 70
    58
 90
        2
176
     0
 90
        2
176
     0
 90
        0
176
     0
 90
        0
176
     0
 40
0.6
176
     0
 40
30.0
176
     0
 62
     7
420
 16777215
176
     0
 90
        1
176
     0
 90
        4
176
     0
 62
     7
176
     0
 62
   257
176
     0
 90
        1
176
     0
 90
        1
176
     0
 40
1.0
176
     0
 90
        9
176
     2
 62
     7
176
     0
 40
1.0
176
     0
 90
        1
176
     0
 90
        6
176
     0
 90
        2
176
     0
 62
     7
176
     0
 90
        5
176
     0
 90
        0
176
     0
 90
        0
176
     0
290
     0
176
     0
 90
        1
176
     0
 40
0.0
176
     0
 90
        0
176
     0
290
     0
176
     1
290
     1
176
     1
290
     1
176
     1
290
     0
176
     1
290
     0
176
     1
290
     0
176
     1
290
     0
176
     1
290
     0
176
     1
290
     0
176
     1
 90
       50
176
     1
 40
0.0
176
     1
 40
1.0
176
     1
 90
        0
176
     1
 62
    18
176
     1
 90
       50
176
     1
 90
        3
176
     1
 62
     5
420
      255
176
     1
290
     0
176
     1
 90
       50
176
     1
 90
       50
176
     1
 90
       50
176
     1
290
     0
176
     1
 90
       50
176
     1
 62
   256
176
     0
 40
1.0
176
     0
 90
        2
176
     1
  1
strokes_ogs.tif
176
     1
290
     0
176
     1
 40
1.0
176
     1
 40
1.0
176
     1
  0
VISUALSTYLE
  5
18BAB
102
{ACAD_REACTORS
330
18BA1
102
}
330
18BA1
100
AcDbVisualStyle
  2
Realistic
 70
     8
177
     3
291
     0
 70
    58
 90
        2
176
     1
 90
        2
176
     1
 90
        0
176
     1
 90
        2
176
     1
 40
0.6
176
     1
 40
30.0
176
     1
 62
     7
420
 16777215
176
     1
 90
        0
176
     1
 90
        0
176
     1
 62
     7
176
     1
 62
   257
176
     1
 90
        1
176
     1
 90
        1
176
     1
 40
1.0
176
     1
 90
        8
176
     1
 62
   257
176
     1
 40
1.0
176
     1
 90
        1
176
     1
 90
        6
176
     1
 90
        2
176
     1
 62
     7
176
     1
 90
        3
176
     1
 90
        0
176
     1
 90
        0
176
     1
290
     0
176
     1
 90
       13
176
     1
 40
0.0
176
     1
 90
        0
176
     1
290
     0
176
     1
290
     1
176
     1
290
     1
176
     1
290
     0
176
     1
290
     0
176
     1
290
     0
176
     1
290
     0
176
     1
290
     0
176
     1
290
     0
176
     1
 90
       50
176
     1
 40
0.0
176
     1
 40
1.0
176
     1
 90
        0
176
     1
 62
    18
176
     1
 90
       50
176
     1
 90
        3
176
     1
 62
     5
420
      255
176
     1
290
     0
176
     1
 90
       50
176
     1
 90
       50
176
     1
 90
       50
176
     1
290
     0
176
     1
 90
       50
176
     1
 62
   256
176
     0
 40
1.0
176
     0
 90
        2
176
     1
  1
strokes_ogs.tif
176
     1
290
     0
176
     1
 40
1.0
176
     1
 40
1.0
176
     1
  0
VISUALSTYLE
  5
18BB6
102
{ACAD_REACTORS
330
18BA1
102
}
330
18BA1
100
AcDbVisualStyle
  2
Shaded
 70
    27
177
     3
291
     0
 70
    58
 90
        2
176
     1
 90
        2
176
     1
 90
        1
176
     1
 90
        2
176
     1
 40
0.6
176
     1
 40
30.0
176
     1
 62
     7
420
 16777215
176
     1
 90
        0
176
     1
 90
        4
176
     1
 62
     7
176
     1
 62
   257
176
     1
 90
        1
176
     1
 90
        1
176
     1
 40
1.0
176
     1
 90
        8
176
     1
 62
   257
176
     1
 40
1.0
176
     1
 90
        1
176
     1
 90
        6
176
     1
 90
        2
176
     1
 62
     8
420
  7895160
176
     1
 90
        3
176
     1
 90
        0
176
     1
 90
        0
176
     1
290
     0
176
     1
 90
        5
176
     1
 40
0.0
176
     1
 90
        0
176
     1
290
     0
176
     1
290
     1
176
     1
290
     1
176
     1
290
     0
176
     1
290
     0
176
     1
290
     0
176
     1
290
     0
176
     1
290
     0
176
     1
290
     0
176
     1
 90
       50
176
     1
 40
0.0
176
     1
 40
1.0
176
     1
 90
        0
176
     1
 62
    18
176
     1
 90
       50
176
     1
 90
        3
176
     1
 62
     5
420
      255
176
     1
290
     0
176
     1
 90
       50
176
     1
 90
       50
176
     1
 90
       50
176
     1
290
     0
176
     1
 90
       50
176
     1
 62
   256
176
     0
 40
1.0
176
     0
 90
        2
176
     1
  1
strokes_ogs.tif
176
     1
290
     0
176
     1
 40
1.0
176
     1
 40
1.0
176
     1
  0
VISUALSTYLE
  5
18BB5
102
{ACAD_REACTORS
330
18BA1
102
}
330
18BA1
100
AcDbVisualStyle
  2
Shaded with edges
 70
    26
177
     3
291
     0
 70
    58
 90
        2
176
     1
 90
        2
176
     1
 90
        1
176
     1
 90
        2
176
     1
 40
0.6
176
     1
 40
30.0
176
     1
 62
     7
420
 16777215
176
     1
 90
        1
176
     1
 90
       10
176
     1
 62
     7
176
     1
 62
   257
176
     1
 90
        2
176
     1
 90
        1
176
     1
 40
1.0
176
     1
 90
        8
176
     1
 62
   257
176
     1
 40
1.0
176
     1
 90
        1
176
     1
 90
        6
176
     1
 90
        2
176
     1
 62
     7
176
     1
 90
        3
176
     1
 90
        0
176
     1
 90
        0
176
     1
290
     0
176
     1
 90
        5
176
     1
 40
0.0
176
     1
 90
        0
176
     1
290
     0
176
     1
290
     1
176
     1
290
     1
176
     1
290
     0
176
     1
290
     0
176
     1
290
     0
176
     1
290
     0
176
     1
290
     0
176
     1
290
     0
176
     1
 90
       50
176
     1
 40
0.0
176
     1
 40
1.0
176
     1
 90
        0
176
     1
 62
    18
176
     1
 90
       50
176
     1
 90
        3
176
     1
 62
     5
420
      255
176
     1
290
     0
176
     1
 90
       50
176
     1
 90
       50
176
     1
 90
       50
176
     1
290
     0
176
     1
 90
       50
176
     1
 62
   256
176
     0
 40
1.0
176
     0
 90
        2
176
     1
  1
strokes_ogs.tif
176
     1
290
     0
176
     1
 40
1.0
176
     1
 40
1.0
176
     1
  0
VISUALSTYLE
  5
18BB2
102
{ACAD_REACTORS
330
18BA1
102
}
330
18BA1
100
AcDbVisualStyle
  2
Shades of Gray
 70
    23
177
     3
291
     0
 70
    58
 90
        2
176
     1
 90
        2
176
     1
 90
        3
176
     1
 90
        0
176
     1
 40
0.6
176
     1
 40
30.0
176
     1
 62
     7
420
 16777215
176
     1
 90
        2
176
     1
 90
        2
176
     1
 62
     7
176
     1
 62
     7
176
     1
 90
        1
176
     1
 90
        1
176
     1
 40
40.0
176
     1
 90
        8
176
     1
 62
     7
176
     1
 40
1.0
176
     1
 90
        1
176
     1
 90
        6
176
     1
 90
        2
176
     1
 62
     7
176
     1
 90
        3
176
     1
 90
        0
176
     1
 90
        0
176
     1
290
     0
176
     1
 90
        1
176
     1
 40
0.0
176
     1
 90
        0
176
     1
290
     0
176
     1
290
     1
176
     1
290
     1
176
     1
290
     0
176
     1
290
     0
176
     1
290
     0
176
     1
290
     0
176
     1
290
     0
176
     1
290
     0
176
     1
 90
       50
176
     1
 40
0.0
176
     1
 40
1.0
176
     1
 90
        0
176
     1
 62
    18
176
     1
 90
       50
176
     1
 90
        3
176
     1
 62
     5
420
      255
176
     1
290
     0
176
     1
 90
       50
176
     1
 90
       50
176
     1
 90
       50
176
     1
290
     0
176
     1
 90
       50
176
     1
 62
   256
176
     0
 40
1.0
176
     0
 90
        2
176
     1
  1
strokes_ogs.tif
176
     1
290
     0
176
     1
 40
1.0
176
     1
 40
1.0
176
     1
  0
VISUALSTYLE
  5
18BB3
102
{ACAD_REACTORS
330
18BA1
102
}
330
18BA1
100
AcDbVisualStyle
  2
Sketchy
 70
    24
177
     3
291
     0
 70
    58
 90
        1
176
     1
 90
        2
176
     1
 90
        2
176
     1
 90
        0
176
     1
 40
0.6
176
     1
 40
30.0
176
     1
 62
     7
420
 16777215
176
     1
 90
        2
176
     1
 90
        2
176
     1
 62
     7
176
     1
 62
     7
176
     1
 90
        1
176
     1
 90
        1
176
     1
 40
40.0
176
     1
 90
       11
176
     1
 62
     7
176
     1
 40
1.0
176
     1
 90
        1
176
     1
 90
        6
176
     1
 90
        2
176
     1
 62
     7
176
     1
 90
        6
176
     1
 90
        0
176
     1
 90
        0
176
     1
290
     0
176
     1
 90
        1
176
     1
 40
0.0
176
     1
 90
        0
176
     1
290
     0
176
     1
290
     1
176
     1
290
     1
176
     1
290
     0
176
     1
290
     0
176
     1
290
     0
176
     1
290
     0
176
     1
290
     0
176
     1
290
     0
176
     1
 90
       50
176
     1
 40
0.0
176
     1
 40
1.0
176
     1
 90
        0
176
     1
 62
    18
176
     1
 90
       50
176
     1
 90
        3
176
     1
 62
     5
420
      255
176
     1
290
     0
176
     1
 90
       50
176
     1
 90
       50
176
     1
 90
       50
176
     1
290
     0
176
     1
 90
       50
176
     1
 62
   256
176
     0
 40
1.0
176
     0
 90
        2
176
     1
  1
strokes_ogs.tif
176
     1
290
     0
176
     1
 40
1.0
176
     1
 40
1.0
176
     1
  0
VISUALSTYLE
  5
18BAE
102
{ACAD_REACTORS
330
18BA1
102
}
330
18BA1
100
AcDbVisualStyle
  2
Thicken
 70
    13
177
     3
291
     1
 70
    58
 90
        2
176
     1
 90
        2
176
     1
 90
        0
176
     1
 90
        0
176
     1
 40
0.6
176
     1
 40
30.0
176
     1
 62
     7
420
 16777215
176
     1
 90
        1
176
     1
 90
        4
176
     1
 62
     7
176
     1
 62
   257
176
     1
 90
        1
176
     1
 90
        1
176
     1
 40
1.0
176
     1
 90
       12
176
     1
 62
     7
176
     1
 40
1.0
176
     1
 90
        1
176
     1
 90
        6
176
     1
 90
        2
176
     1
 62
     7
176
     1
 90
        5
176
     1
 90
        0
176
     1
 90
        0
176
     1
290
     0
176
     1
 90
        1
176
     1
 40
0.0
176
     1
 90
        0
176
     1
290
     0
176
     1
290
     1
176
     1
290
     1
176
     1
290
     0
176
     1
290
     0
176
     1
290
     0
176
     1
290
     0
176
     1
290
     0
176
     1
290
     0
176
     1
 90
       50
176
     1
 40
0.0
176
     1
 40
1.0
176
     1
 90
        0
176
     1
 62
    18
176
     1
 90
       50
176
     1
 90
        3
176
     1
 62
     5
420
      255
176
     1
290
     0
176
     1
 90
       50
176
     1
 90
       50
176
     1
 90
       50
176
     1
290
     0
176
     1
 90
       50
176
     1
 62
   256
176
     0
 40
1.0
176
     0
 90
        2
176
     1
  1
strokes_ogs.tif
176
     1
290
     0
176
     1
 40
1.0
176
     1
 40
1.0
176
     1
  0
VISUALSTYLE
  5
18BA8
102
{ACAD_REACTORS
330
18BA1
102
}
330
18BA1
100
AcDbVisualStyle
  2
Wireframe
 70
     5
177
     3
291
     0
 70
    58
 90
        0
176
     1
 90
        2
176
     1
 90
        0
176
     1
 90
        0
176
     1
 40
0.6
176
     1
 40
30.0
176
     1
 62
     7
420
 16777215
176
     1
 90
        1
176
     1
 90
        4
176
     1
 62
     7
176
     1
 62
   257
176
     1
 90
        1
176
     1
 90
        1
176
     1
 40
1.0
176
     1
 90
        0
176
     1
 62
   257
176
     1
 40
1.0
176
     1
 90
        1
176
     1
 90
        6
176
     1
 90
        2
176
     1
 62
     7
176
     1
 90
        3
176
     1
 90
        0
176
     1
 90
        0
176
     1
290
     0
176
     1
 90
        1
176
     1
 40
0.0
176
     1
 90
        0
176
     1
290
     0
176
     1
290
     1
176
     1
290
     1
176
     1
290
     0
176
     1
290
     0
176
     1
290
     0
176
     1
290
     0
176
     1
290
     0
176
     1
290
     0
176
     1
 90
       50
176
     1
 40
0.0
176
     1
 40
1.0
176
     1
 90
        0
176
     1
 62
    18
176
     1
 90
       50
176
     1
 90
        3
176
     1
 62
     5
420
      255
176
     1
290
     0
176
     1
 90
       50
176
     1
 90
       50
176
     1
 90
       50
176
     1
290
     0
176
     1
 90
       50
176
     1
 62
   256
176
     0
 40
1.0
176
     0
 90
        2
176
     1
  1
strokes_ogs.tif
176
     1
290
     0
176
     1
 40
1.0
176
     1
 40
1.0
176
     1
  0
VISUALSTYLE
  5
18BB4
102
{ACAD_REACTORS
330
18BA1
102
}
330
18BA1
100
AcDbVisualStyle
  2
X-Ray
 70
    25
177
     3
291
     0
 70
    58
 90
        2
176
     1
 90
        2
176
     1
 90
        1
176
     1
 90
        1
176
     1
 40
0.5
176
     1
 40
30.0
176
     1
 62
     7
420
 16777215
176
     1
 90
        1
176
     1
 90
        0
176
     1
 62
     7
176
     1
 62
   257
176
     1
 90
        1
176
     1
 90
        1
176
     1
 40
1.0
176
     1
 90
        8
176
     1
 62
     7
176
     1
 40
1.0
176
     1
 90
        1
176
     1
 90
        6
176
     1
 90
        2
176
     1
 62
     7
176
     1
 90
        3
176
     1
 90
        0
176
     1
 90
        0
176
     1
290
     0
176
     1
 90
       13
176
     1
 40
0.0
176
     1
 90
        0
176
     1
290
     0
176
     1
290
     1
176
     1
290
     1
176
     1
290
     0
176
     1
290
     0
176
     1
290
     0
176
     1
290
     0
176
     1
290
     0
176
     1
290
     0
176
     1
 90
       50
176
     1
 40
0.0
176
     1
 40
1.0
176
     1
 90
        0
176
     1
 62
    18
176
     1
 90
       50
176
     1
 90
        3
176
     1
 62
     5
420
      255
176
     1
290
     0
176
     1
 90
       50
176
     1
 90
       50
176
     1
 90
       50
176
     1
290
     0
176
     1
 90
       50
176
     1
 62
   256
176
     0
 40
1.0
176
     0
 90
        2
176
     1
  1
strokes_ogs.tif
176
     1
290
     0
176
     1
 40
1.0
176
     1
 40
1.0
176
     1
  0
DICTIONARYVAR
  5
18CC5
102
{ACAD_REACTORS
330
66
102
}
330
66
100
DictionaryVariables
280
     0
  1
1:1
  0
DICTIONARYVAR
  5
18CC3
102
{ACAD_REACTORS
330
66
102
}
330
66
100
DictionaryVariables
280
     0
  1
STANDARD
  0
DICTIONARYVAR
  5
18CC2
102
{ACAD_REACTORS
330
66
102
}
330
66
100
DictionaryVariables
280
     0
  1
STANDARD
  0
DICTIONARYVAR
  5
18F4C
102
{ACAD_REACTORS
330
66
102
}
330
66
100
DictionaryVariables
280
     0
  1
Imperial24
  0
DICTIONARYVAR
  5
18F4D
102
{ACAD_REACTORS
330
66
102
}
330
66
100
DictionaryVariables
280
     0
  1
Imperial24
  0
DICTIONARYVAR
  5
67
102
{ACAD_REACTORS
330
66
102
}
330
66
100
DictionaryVariables
280
     0
  1
1
  0
DICTIONARYVAR
  5
19CFE
102
{ACAD_REACTORS
330
66
102
}
330
66
100
DictionaryVariables
280
     0
  1
1
  0
DICTIONARYVAR
  5
6B
102
{ACAD_REACTORS
330
66
102
}
330
66
100
DictionaryVariables
280
     0
  1
1
  0
DICTIONARYVAR
  5
19CD6
102
{ACAD_REACTORS
330
66
102
}
330
66
100
DictionaryVariables
280
     0
  1
250
  0
DICTIONARYVAR
  5
18CC7
102
{ACAD_REACTORS
330
66
102
}
330
66
100
DictionaryVariables
280
     0
  1
1
  0
DICTIONARYVAR
  5
18CC8
102
{ACAD_REACTORS
330
66
102
}
330
66
100
DictionaryVariables
280
     0
  1
15
  0
DICTIONARYVAR
  5
18CC6
102
{ACAD_REACTORS
330
66
102
}
330
66
100
DictionaryVariables
280
     0
  1
0
  0
DICTIONARYVAR
  5
18CC4
102
{ACAD_REACTORS
330
66
102
}
330
66
100
DictionaryVariables
280
     0
  1
0
  0
DICTIONARYVAR
  5
13425
102
{ACAD_REACTORS
330
66
102
}
330
66
100
DictionaryVariables
280
     0
  1

  0
DICTIONARYVAR
  5
18F4E
102
{ACAD_REACTORS
330
66
102
}
330
66
100
DictionaryVariables
280
     0
  1
1
  0
DICTIONARYVAR
  5
D3
102
{ACAD_REACTORS
330
66
102
}
330
66
100
DictionaryVariables
280
     0
  1
33
  0
DICTIONARY
  5
18D0D
102
{ACAD_REACTORS
330
18D06
102
}
330
18D06
100
AcDbDictionary
281
     1
  0
XRECORD
  5
18F78
102
{ACAD_REACTORS
330
18D06
102
}
330
18D06
100
AcDbXrecord
280
     1
 90
-1023410169
  0
XRECORD
  5
13351
102
{ACAD_REACTORS
330
13350
102
}
330
13350
100
AcDbXrecord
280
     1
330
0
330
0
330
0
330
0
330
0
330
0
330
0
  0
DICTIONARY
  5
19D04
330
19A89
100
AcDbDictionary
280
     1
281
     1
  3
ACAD_XREC_ROUNDTRIP
360
19FCE
  0
DICTIONARY
  5
19D02
330
18CCD
100
AcDbDictionary
280
     1
281
     1
  3
ACAD_XREC_ROUNDTRIP
360
19FCD
  0
DICTIONARY
  5
18BDE
330
10240
100
AcDbDictionary
280
     1
281
     1
  0
DICTIONARY
  5
18CAA
330
22
100
AcDbDictionary
280
     1
281
     1
  3
AcPublish_PlotSettingsOverride
360
19CFF
  0
DICTIONARY
  5
18B92
330
18B91
100
AcDbDictionary
280
     1
281
     1
  3
BUMPTILE
360
18B94
  3
DIFFUSETILE
360
18B93
  3
OPACITYTILE
360
18B97
  3
REFLECTIONTILE
360
18B96
  3
REFRACTIONTILE
360
18B98
  3
SPECULARTILE
360
18B95
  0
DICTIONARY
  5
18B8A
330
18B89
100
AcDbDictionary
280
     1
281
     1
  3
BUMPTILE
360
18B8C
  3
DIFFUSETILE
360
18B8B
  3
OPACITYTILE
360
18B8F
  3
REFLECTIONTILE
360
18B8E
  3
REFRACTIONTILE
360
18B90
  3
SPECULARTILE
360
18B8D
  0
DICTIONARY
  5
18B9A
330
18B99
100
AcDbDictionary
280
     1
281
     1
  3
BUMPTILE
360
18B9C
  3
DIFFUSETILE
360
18B9B
  3
OPACITYTILE
360
18B9F
  3
REFLECTIONTILE
360
18B9E
  3
REFRACTIONTILE
360
18BA0
  3
SPECULARTILE
360
18B9D
  0
DICTIONARY
  5
19A8F
330
19A8E
100
AcDbDictionary
280
     1
281
     1
  3
ACAD_FIELD
360
19A90
  3
ACAD_XREC_ROUNDTRIP
360
19FCF
  0
DICTIONARY
  5
19D00
330
18CCB
100
AcDbDictionary
280
     1
281
     1
  3
ACAD_XREC_ROUNDTRIP
360
19FCC
  0
DICTIONARY
  5
18EF7
330
18BBB
100
AcDbDictionary
280
     1
281
     1
  3
ACAD_ROUNDTRIP_2008_TABLESTYLE_CELLSTYLEMAP
360
1A086
  0
XRECORD
  5
19FCE
102
{ACAD_REACTORS
330
19D04
102
}
330
19D04
100
AcDbXrecord
280
     1
102
DISPLAYNAME
  1
ASME Y14.35 - 1987(1)
102
FLAGS
 90
        0
  0
XRECORD
  5
19FCD
102
{ACAD_REACTORS
330
19D02
102
}
330
19D02
100
AcDbXrecord
280
     1
102
DISPLAYNAME
  1
Imperial24
102
FLAGS
 90
        0
  0
PLOTSETTINGS
  5
19CFF
102
{ACAD_REACTORS
330
18CAA
102
}
330
18CAA
100
AcDbPlotSettings
  1

  2
none_device
  4
ANSI_A_(8.50_x_11.00_Inches)
  6

 40
6.349999904632567
 41
19.04999923706055
 42
6.350006103515625
 43
19.04998779296875
 44
215.8999938964844
 45
279.3999938964844
 46
0.0
 47
0.0
 48
0.0
 49
0.0
140
0.0
141
0.0
142
1.0
143
1.37525229318018
 70
 11952
 72
     0
 73
     1
 74
     1
  7

 75
     0
147
0.7271393074266871
 76
     0
 77
     2
 78
   300
148
-22278.90794929601
149
-1187.371246057765
  0
XRECORD
  5
18B94
102
{ACAD_REACTORS
330
18B92
102
}
330
18B92
100
AcDbXrecord
280
     1
270
     1
271
     1
  0
XRECORD
  5
18B93
102
{ACAD_REACTORS
330
18B92
102
}
330
18B92
100
AcDbXrecord
280
     1
270
     1
271
     1
  0
XRECORD
  5
18B97
102
{ACAD_REACTORS
330
18B92
102
}
330
18B92
100
AcDbXrecord
280
     1
270
     1
271
     1
  0
XRECORD
  5
18B96
102
{ACAD_REACTORS
330
18B92
102
}
330
18B92
100
AcDbXrecord
280
     1
270
     1
271
     1
  0
XRECORD
  5
18B98
102
{ACAD_REACTORS
330
18B92
102
}
330
18B92
100
AcDbXrecord
280
     1
270
     1
271
     1
  0
XRECORD
  5
18B95
102
{ACAD_REACTORS
330
18B92
102
}
330
18B92
100
AcDbXrecord
280
     1
270
     1
271
     1
  0
XRECORD
  5
18B8C
102
{ACAD_REACTORS
330
18B8A
102
}
330
18B8A
100
AcDbXrecord
280
     1
270
     1
271
     1
  0
XRECORD
  5
18B8B
102
{ACAD_REACTORS
330
18B8A
102
}
330
18B8A
100
AcDbXrecord
280
     1
270
     1
271
     1
  0
XRECORD
  5
18B8F
102
{ACAD_REACTORS
330
18B8A
102
}
330
18B8A
100
AcDbXrecord
280
     1
270
     1
271
     1
  0
XRECORD
  5
18B8E
102
{ACAD_REACTORS
330
18B8A
102
}
330
18B8A
100
AcDbXrecord
280
     1
270
     1
271
     1
  0
XRECORD
  5
18B90
102
{ACAD_REACTORS
330
18B8A
102
}
330
18B8A
100
AcDbXrecord
280
     1
270
     1
271
     1
  0
XRECORD
  5
18B8D
102
{ACAD_REACTORS
330
18B8A
102
}
330
18B8A
100
AcDbXrecord
280
     1
270
     1
271
     1
  0
XRECORD
  5
18B9C
102
{ACAD_REACTORS
330
18B9A
102
}
330
18B9A
100
AcDbXrecord
280
     1
270
     1
271
     1
  0
XRECORD
  5
18B9B
102
{ACAD_REACTORS
330
18B9A
102
}
330
18B9A
100
AcDbXrecord
280
     1
270
     1
271
     1
  0
XRECORD
  5
18B9F
102
{ACAD_REACTORS
330
18B9A
102
}
330
18B9A
100
AcDbXrecord
280
     1
270
     1
271
     1
  0
XRECORD
  5
18B9E
102
{ACAD_REACTORS
330
18B9A
102
}
330
18B9A
100
AcDbXrecord
280
     1
270
     1
271
     1
  0
XRECORD
  5
18BA0
102
{ACAD_REACTORS
330
18B9A
102
}
330
18B9A
100
AcDbXrecord
280
     1
270
     1
271
     1
  0
XRECORD
  5
18B9D
102
{ACAD_REACTORS
330
18B9A
102
}
330
18B9A
100
AcDbXrecord
280
     1
270
     1
271
     1
  0
DICTIONARY
  5
19A90
102
{ACAD_REACTORS
330
19A8F
102
}
330
19A8F
100
AcDbDictionary
280
     1
281
     1
  3
TEXT
360
19A91
  0
XRECORD
  5
19FCF
102
{ACAD_REACTORS
330
19A8F
102
}
330
19A8F
100
AcDbXrecord
280
     1
102
DISPLAYNAME
  1
ASME Y14.3 - 2003(1)
102
FLAGS
 90
        0
  0
XRECORD
  5
19FCC
102
{ACAD_REACTORS
330
19D00
102
}
330
19D00
100
AcDbXrecord
280
     1
102
DISPLAYNAME
  1
Imperial24
102
FLAGS
 90
        0
  0
CELLSTYLEMAP
  5
1A086
102
{ACAD_REACTORS
330
18EF7
102
}
330
18EF7
100
AcDbCellStyleMap
 90
        3
300
CELLSTYLE
  1
TABLEFORMAT_BEGIN
 90
        5
170
     1
 91
        0
 92
    32768
 62
   257
 93
        1
300
CONTENTFORMAT
  1
CONTENTFORMAT_BEGIN
 90
        0
 91
        0
 92
      512
 93
        0
300

 40
0.0
140
1.0
 94
        5
 62
     0
340
11
144
0.25
309
CONTENTFORMAT_END
171
     1
301
MARGIN
  1
CELLMARGIN_BEGIN
 40
0.06
 40
0.06
 40
0.06
 40
0.06
 40
0.18
 40
0.18
309
CELLMARGIN_END
 94
        6
 95
        1
302
GRIDFORMAT
  1
GRIDFORMAT_BEGIN
 90
        0
 91
        1
 62
     0
 92
       -2
340
0
 93
        0
 40
0.045
309
GRIDFORMAT_END
 95
        2
302
GRIDFORMAT
  1
GRIDFORMAT_BEGIN
 90
        0
 91
        1
 62
     0
 92
       -2
340
0
 93
        0
 40
0.045
309
GRIDFORMAT_END
 95
        4
302
GRIDFORMAT
  1
GRIDFORMAT_BEGIN
 90
        0
 91
        1
 62
     0
 92
       -2
340
0
 93
        0
 40
0.045
309
GRIDFORMAT_END
 95
        8
302
GRIDFORMAT
  1
GRIDFORMAT_BEGIN
 90
        0
 91
        1
 62
     0
 92
       -2
340
0
 93
        0
 40
0.045
309
GRIDFORMAT_END
 95
       16
302
GRIDFORMAT
  1
GRIDFORMAT_BEGIN
 90
        0
 91
        1
 62
     0
 92
       -2
340
0
 93
        0
 40
0.045
309
GRIDFORMAT_END
 95
       32
302
GRIDFORMAT
  1
GRIDFORMAT_BEGIN
 90
        0
 91
        1
 62
     0
 92
       -2
340
0
 93
        0
 40
0.045
309
GRIDFORMAT_END
309
TABLEFORMAT_END
  1
CELLSTYLE_BEGIN
 90
        1
 91
        1
300
_TITLE
309
CELLSTYLE_END
300
CELLSTYLE
  1
TABLEFORMAT_BEGIN
 90
        5
170
     1
 91
        0
 92
        0
 62
   257
 93
        1
300
CONTENTFORMAT
  1
CONTENTFORMAT_BEGIN
 90
        0
 91
        0
 92
      512
 93
        0
300

 40
0.0
140
1.0
 94
        5
 62
     0
340
11
144
0.18
309
CONTENTFORMAT_END
171
     1
301
MARGIN
  1
CELLMARGIN_BEGIN
 40
0.06
 40
0.06
 40
0.06
 40
0.06
 40
0.18
 40
0.18
309
CELLMARGIN_END
 94
        6
 95
        1
302
GRIDFORMAT
  1
GRIDFORMAT_BEGIN
 90
        0
 91
        1
 62
     0
 92
       -2
340
0
 93
        0
 40
0.045
309
GRIDFORMAT_END
 95
        2
302
GRIDFORMAT
  1
GRIDFORMAT_BEGIN
 90
        0
 91
        1
 62
     0
 92
       -2
340
0
 93
        0
 40
0.045
309
GRIDFORMAT_END
 95
        4
302
GRIDFORMAT
  1
GRIDFORMAT_BEGIN
 90
        0
 91
        1
 62
     0
 92
       -2
340
0
 93
        0
 40
0.045
309
GRIDFORMAT_END
 95
        8
302
GRIDFORMAT
  1
GRIDFORMAT_BEGIN
 90
        0
 91
        1
 62
     0
 92
       -2
340
0
 93
        0
 40
0.045
309
GRIDFORMAT_END
 95
       16
302
GRIDFORMAT
  1
GRIDFORMAT_BEGIN
 90
        0
 91
        1
 62
     0
 92
       -2
340
0
 93
        0
 40
0.045
309
GRIDFORMAT_END
 95
       32
302
GRIDFORMAT
  1
GRIDFORMAT_BEGIN
 90
        0
 91
        1
 62
     0
 92
       -2
340
0
 93
        0
 40
0.045
309
GRIDFORMAT_END
309
TABLEFORMAT_END
  1
CELLSTYLE_BEGIN
 90
        2
 91
        1
300
_HEADER
309
CELLSTYLE_END
300
CELLSTYLE
  1
TABLEFORMAT_BEGIN
 90
        5
170
     1
 91
        0
 92
        0
 62
   257
 93
        1
300
CONTENTFORMAT
  1
CONTENTFORMAT_BEGIN
 90
        0
 91
        0
 92
      512
 93
        0
300

 40
0.0
140
1.0
 94
        2
 62
     0
340
11
144
0.18
309
CONTENTFORMAT_END
171
     1
301
MARGIN
  1
CELLMARGIN_BEGIN
 40
0.06
 40
0.06
 40
0.06
 40
0.06
 40
0.18
 40
0.18
309
CELLMARGIN_END
 94
        6
 95
        1
302
GRIDFORMAT
  1
GRIDFORMAT_BEGIN
 90
        0
 91
        1
 62
     0
 92
       -2
340
0
 93
        0
 40
0.045
309
GRIDFORMAT_END
 95
        2
302
GRIDFORMAT
  1
GRIDFORMAT_BEGIN
 90
        0
 91
        1
 62
     0
 92
       -2
340
0
 93
        0
 40
0.045
309
GRIDFORMAT_END
 95
        4
302
GRIDFORMAT
  1
GRIDFORMAT_BEGIN
 90
        0
 91
        1
 62
     0
 92
       -2
340
0
 93
        0
 40
0.045
309
GRIDFORMAT_END
 95
        8
302
GRIDFORMAT
  1
GRIDFORMAT_BEGIN
 90
        0
 91
        1
 62
     0
 92
       -2
340
0
 93
        0
 40
0.045
309
GRIDFORMAT_END
 95
       16
302
GRIDFORMAT
  1
GRIDFORMAT_BEGIN
 90
        0
 91
        1
 62
     0
 92
       -2
340
0
 93
        0
 40
0.045
309
GRIDFORMAT_END
 95
       32
302
GRIDFORMAT
  1
GRIDFORMAT_BEGIN
 90
        0
 91
        1
 62
     0
 92
       -2
340
0
 93
        0
 40
0.045
309
GRIDFORMAT_END
309
TABLEFORMAT_END
  1
CELLSTYLE_BEGIN
 90
        3
 91
        2
300
_DATA
309
CELLSTYLE_END
  0
FIELD
  5
19A91
102
{ACAD_REACTORS
330
19A90
102
}
330
19A90
100
AcDbField
  1
_text
  2
%<\_FldIdx 0>% %<\_FldIdx 1>%-%<\_FldIdx 2>%
 90
        3
360
19A92
360
19A93
360
19A94
 97
        0
 91
       63
 92
        0
 94
        9
 95
        2
 96
        0
300

 93
        0
  7
ACFD_FIELD_VALUE
 93
        3
 90
        0
 94
        0
300

302

304
ACVALUE_END
301

 98
        0
  0
FIELD
  5
19A92
330
19A91
100
AcDbField
  1
AcVar
  2
\AcVar ViewType \f "%tc1"
 90
        0
 97
        0
 91
       63
 92
        0
 94
       43
 95
        2
 96
        0
300

 93
        1
  6
Variable
 93
        0
 90
        4
  1
ViewType
 94
        0
300

302

304
ACVALUE_END
  7
ACFD_FIELD_VALUE
 93
        1
 90
        0
 94
        0
300
%tc1
302

304
ACVALUE_END
301
----
 98
        4
  0
FIELD
  5
19A93
330
19A91
100
AcDbField
  1
AcVar
  2
\AcVar ViewSectionStartId
 90
        0
 97
        0
 91
       63
 92
        0
 94
       43
 95
        2
 96
        0
300

 93
        1
  6
Variable
 93
        0
 90
        4
  1
ViewSectionStartId
 94
        0
300

302

304
ACVALUE_END
  7
ACFD_FIELD_VALUE
 93
        1
 90
        0
 94
        0
300

302

304
ACVALUE_END
301
----
 98
        4
  0
FIELD
  5
19A94
330
19A91
100
AcDbField
  1
AcVar
  2
\AcVar ViewSectionEndId
 90
        0
 97
        0
 91
       63
 92
        0
 94
       43
 95
        2
 96
        0
300

 93
        1
  6
Variable
 93
        0
 90
        4
  1
ViewSectionEndId
 94
        0
300

302

304
ACVALUE_END
  7
ACFD_FIELD_VALUE
 93
        1
 90
        0
 94
        0
300

302

304
ACVALUE_END
301
----
 98
        4
  0
ENDSEC
  0
SECTION
  2
ACDSDATA
 70
     2
 71
     2
  0
ACDSSCHEMA
 90
        0
  1
AcDb_Thumbnail_Schema
  2
AcDbDs::ID
280
    10
 91
        8
  2
Thumbnail_Data
280
    15
 91
        0
101
ACDSRECORD
 95
        0
 90
        1
  2
AcDbDs::TreatedAsObjectData
280
     1
291
     1
101
ACDSRECORD
 95
        0
 90
        2
  2
AcDbDs::Legacy
280
     1
291
     1
101
ACDSRECORD
  1
AcDbDs::ID
 90
        3
  2
AcDs:Indexable
280
     1
291
     1
101
ACDSRECORD
  1
AcDbDs::ID
 90
        4
  2
AcDbDs::HandleAttribute
280
     7
282
     1
  0
ACDSSCHEMA
 90
        1
  1
AcDbDs::TreatedAsObjectDataSchema
  2
AcDbDs::TreatedAsObjectData
280
     1
 91
        0
  0
ACDSSCHEMA
 90
        2
  1
AcDbDs::LegacySchema
  2
AcDbDs::Legacy
280
     1
 91
        0
  0
ACDSSCHEMA
 90
        3
  1
AcDbDs::IndexedPropertySchema
  2
AcDs:Indexable
280
     1
 91
        0
  0
ACDSSCHEMA
 90
        4
  1
AcDbDs::HandleAttributeSchema
  2
AcDbDs::HandleAttribute
280
     7
 91
        1
284
     1
  0
ACDSRECORD
 90
        0
  2
AcDbDs::ID
280
    10
320
10240
  2
Thumbnail_Data
280
    15
 94
     2545
310
89504E470D0A1A0A0000000D49484452000000C6000001000803000000DF83F97200000300504C5445000000000000C8C8C80000000000000000000000000000000000000000000000000000330000660000990000CC0000FF0033000033330033660033990033CC0033FF0066000066330066660066990066CC0066FF0099
310
000099330099660099990099CC0099FF00CC0000CC3300CC6600CC9900CCCC00CCFF00FF0000FF3300FF6600FF9900FFCC00FFFF3300003300333300663300993300CC3300FF3333003333333333663333993333CC3333FF3366003366333366663366993366CC3366FF3399003399333399663399993399CC3399FF33CC00
310
33CC3333CC6633CC9933CCCC33CCFF33FF0033FF3333FF6633FF9933FFCC33FFFF6600006600336600666600996600CC6600FF6633006633336633666633996633CC6633FF6666006666336666666666996666CC6666FF6699006699336699666699996699CC6699FF66CC0066CC3366CC6666CC9966CCCC66CCFF66FF0066
310
FF3366FF6666FF9966FFCC66FFFF9900009900339900669900999900CC9900FF9933009933339933669933999933CC9933FF9966009966339966669966999966CC9966FF9999009999339999669999999999CC9999FF99CC0099CC3399CC6699CC9999CCCC99CCFF99FF0099FF3399FF6699FF9999FFCC99FFFFCC0000CC00
310
33CC0066CC0099CC00CCCC00FFCC3300CC3333CC3366CC3399CC33CCCC33FFCC6600CC6633CC6666CC6699CC66CCCC66FFCC9900CC9933CC9966CC9999CC99CCCC99FFCCCC00CCCC33CCCC66CCCC99CCCCCCCCCCFFCCFF00CCFF33CCFF66CCFF99CCFFCCCCFFFFFF0000FF0033FF0066FF0099FF00CCFF00FFFF3300FF3333
310
FF3366FF3399FF33CCFF33FFFF6600FF6633FF6666FF6699FF66CCFF66FFFF9900FF9933FF9966FF9999FF99CCFF99FFFFCC00FFCC33FFCC66FFCC99FFCCCCFFCCFFFFFF00FFFF33FFFF66FFFF99FFFFCCFFFFFF0000000D0D0D1A1A1A2828283535354343435050505D5D5D6B6B6B787878868686939393A1A1A1AEAEAEBB
310
BBBBC9C9C9D6D6D6E4E4E4F1F1F1FFFFFF00000000000000000000000000000000000000000000000000000000000008F1915C000006AC4944415478DAED9D3B7ADB381080E70ABE48D22CB7892FA23451B5BC88DC2C53E92274B3DC667511BA09FAB4D32F485B1248BC1F14017890CFB2040E11FEC66B1E00048015240098
310
7E0A4F378CDF45A73B4625B5411884411884411884411884B11B06D7747F57A0A86325B54118844118068C4A46AA725D0B84411884411884411884411884411884411884411884512E063AE4682E622E1888EFB7E3BB9BE8FEC180F171F12E0DB3A70677C3B8F98A40741C81F056778FC6E7B473A39A2BC26D4D0DCAB76683
310
01780581B2313E9ABA3FC6F2561AA9082392FA511852CF43658E3963998342067A141B81218F9E528EB708AE7E5C4B89C4B03CB524821611713843F762C331EE73F23247CA10750FCD3D771114445053AC5C4A3886F824B07E58AB08BA88E0AAA36B4B89C158BF95C7984811E77B76C7402306EE8221372AB0B7BB10919418
310
7217C75B5F448388AE8B6344B1A9065C71C29232EE9AAAF61E071104A548AAE96F3157A12A5723E2266F293FA932E2FB074D57950955C324CD3BA863A5C4701849EC22A6014A2B921223F9ACE72E42185ECA15DA27B918852C1986A87B0AEFC5BEB8C846E91E0711A1F0D53D89E68D8571F0F1B21C1951B21F5422E828B2C8
310
C5E46693E26161FD24AA194C2D622E163699C501D7B6817E9203B33202F689511689379B70359F4A33181A66306F11E53DDBDA1B884944C06E92646236419C08D5465D7DA39291AAA279439EC59D9E0431F06FB0CD2CFE51E9469D4A14115E71290226117DB11B69B860D7705388E016665392313368B426B3A9565BBC44CF
310
08D6E1A7C23ABC8618E1C305BB0F171EE4C35D0C9D0B0B5F6ADEA8115969466611876223310A8E6F88CB82AA8D365512FBAB206826689D579D16147AACCE59681231179BD6FA931C7FCBABCAD1D44F44ED4F0CC158AF402974FA9316D294A98C6896FC95A61AAA318A53D49518E5994D6A8CE28C584DA3C2B5E9AFC8D16538
310
88A05624F148A5F5C4AC44502B62888B198B4D336F94E96E534D7FC14F4241330A9AD514A6496FFDED1334C33A82668855F40DC4703F55466B0D35EE36695C07F4FBA0993760A379036D41B33296BEA052B0F085481A6DB5BC6561F5449B28684641B3A418752CEEAE64A97D151B1FEAD88652497C8382665905CDB6DFBEE8
310
AA90A50D9A999554A3EEEBA71EC34641335406CDCC2603EA453C8C95241876AF5E5AE7276CB9D630D6F127B91CC1BDD89466D3AAA9628873C34DC499C0DFDEA0B58639597F75D446057DA38E91AA9235EA7504CD14DA10AA02B00E31DAF0306E720D17ECE1F03422E81A20A79D66E55B7F7440071DD0415E43812368F1E6AA
310
2A554133C762B7089A852EA57517491434C33AE21B98ADD9A45D3F680FEFD7849149A3F2C1509FEE1ABD2126782B4E686DD88366B053D0CC0323E7A5F69118B92823C118B9A98661189929EAA1B59199D9B405C61E462C3A2B234B0CAF0DF8EBFF0B3D44ACB1B8180CF371089EA72CF81DC4A00C9AE9F63214B6463D0223A7
310
A0997BA302DD99F9FBB8A2ADC7F7FB994DE505064C7B820A0AD3E46B36451BB125D646257D23A7A059F848650A9A95336F188266BB2F7D719FC50D1EF5FD1722056294ABE1661D34DB00638FA059320C0A9A51D08C8266061F2E9D6A4FA7DAC763D04EB39C30E8547B3AD57E9BB58650D646EBFA9491CF7040C7834536C2A8
310
64A759B5A7DAA3F99E4C4EB55F58202A91DBDF517D8FF9B0974DBF7D311003F3C340FBF775E2C237AB9A7F95A5A0FD8B41D3EF34934C28490441F23CEBEF01E762535A7F4ECAA68FB9932A1106611006617C3A8CDB817577E31461798A5DF6186294D4163A2DAA51CDC7093E8263E32FAD2FB7365655239DF0582246B9032E
310
61100661100661100661EC81517012300A4E8441188441188441189F1CA36055240FD5903F08E3697E59A4BE61E20559604ED9639C9BC5C76230068057D67707E8E6F7A767D6F6303CBF31F604CD24D09CB3C6688FED09661260DDF50D6B0EECF0F4FEA16703FFFDC731EFDA78694F2DB0E373DF7D193AFEAC5F87137FEDBF
310
B1A69F30CE5FE7EA3A3E17D1A88E87EED4FE9A309AF1AFBFE7BE31B5225E41F3F3C3535704C6CBDCA5E7DAF8771AA5BE7F637FBE5E5BD8F4C2DB56095D1C9A03B0F607EFD1BC27343CCDB5F183E7C1F1CB2CF08F13C663E22A12C6657A1C3E1EB171787FB4E9FD70B93EE8C8D8855F983E5F5C30A46D600FC260C6F4CB7C59
310
8F0118A89C0462B4AF97F1783AF7437F66CDD0F5DDD8B1B66BFB76EC7A763A8FE79E5F1F78EE609937B24F3FFB76E0247CAC92AFDD3084DFD7EA78646D5C86CB388CBCDDBF0C6C781BD8914F7697A94F8CC31BE39FFFE39FA77FB7BEA3A98D9D31584C9230F6D2B393605490A092F43F638EFACCFD88EE370000000049454E
310
44AE426082
  0
ACDSRECORD
 90
        0
  2
AcDbDs::ID
280
    10
320
22
  2
Thumbnail_Data
280
    15
 94
     1964
310
89504E470D0A1A0A0000000D49484452000001000000006D080300000079B14F6400000300504C5445212830000000C8C8C80000000000000000000000000000000000000000000000000000330000660000990000CC0000FF0033000033330033660033990033CC0033FF0066000066330066660066990066CC0066FF0099
310
000099330099660099990099CC0099FF00CC0000CC3300CC6600CC9900CCCC00CCFF00FF0000FF3300FF6600FF9900FFCC00FFFF3300003300333300663300993300CC3300FF3333003333333333663333993333CC3333FF3366003366333366663366993366CC3366FF3399003399333399663399993399CC3399FF33CC00
310
33CC3333CC6633CC9933CCCC33CCFF33FF0033FF3333FF6633FF9933FFCC33FFFF6600006600336600666600996600CC6600FF6633006633336633666633996633CC6633FF6666006666336666666666996666CC6666FF6699006699336699666699996699CC6699FF66CC0066CC3366CC6666CC9966CCCC66CCFF66FF0066
310
FF3366FF6666FF9966FFCC66FFFF9900009900339900669900999900CC9900FF9933009933339933669933999933CC9933FF9966009966339966669966999966CC9966FF9999009999339999669999999999CC9999FF99CC0099CC3399CC6699CC9999CCCC99CCFF99FF0099FF3399FF6699FF9999FFCC99FFFFCC0000CC00
310
33CC0066CC0099CC00CCCC00FFCC3300CC3333CC3366CC3399CC33CCCC33FFCC6600CC6633CC6666CC6699CC66CCCC66FFCC9900CC9933CC9966CC9999CC99CCCC99FFCCCC00CCCC33CCCC66CCCC99CCCCCCCCCCFFCCFF00CCFF33CCFF66CCFF99CCFFCCCCFFFFFF0000FF0033FF0066FF0099FF00CCFF00FFFF3300FF3333
310
FF3366FF3399FF33CCFF33FFFF6600FF6633FF6666FF6699FF66CCFF66FFFF9900FF9933FF9966FF9999FF99CCFF99FFFFCC00FFCC33FFCC66FFCC99FFCCCCFFCCFFFFFF00FFFF33FFFF66FFFF99FFFFCCFFFFFF0000000D0D0D1A1A1A2828283535354343435050505D5D5D6B6B6B787878868686939393A1A1A1AEAEAEBB
310
BBBBC9C9C9D6D6D6E4E4E4F1F1F1FFFFFF000000000000000000000000000000000000000000000000000000000000B21171F6000004394944415478DAED5D4D7AB32010CEA5721FBAF97291749359D58BA49B4C37F5227653BCC3EC3FE44F5434FE340B06F0311351FB946178799901723ABD24D12BD229A14489FCCDA280
310
D729E0EFED3F35050871162A4178A884FA9C3BF4FDE13B42A72415E0922B7B2CE1DC8DBEECA92A605AFFC29519176D00606201E7B42D40CC5A0006E7D4064460037C30009E6080AE7FC8070366718009068861FD3FE90786A5E78201308301CBED7F6C03E92A20C203C8D43785B54F2627071EA0585D77DA0FEC735DE2CF03
310
088D0222166015C09C0790173D0E5070831D0FE86AD548DF06747D1B2C202DAD4D7477B5B6DC3B1C3080A825B2CD5C0B7BD986975AD0E8212618406DDB6ACCEB64577025D0880E0D742E060FF9677B14489B07D8CAA5B0AE61988BA387ACE0C20354617CE7D789D67DD5ED5F979C620FF1E101646A3410A3CB682E271E10B6
310
FFAEA6DB210E84B9FE21364C10BA7E60A70530E2010B1840DC316058C110E2FC2877FC10331ED04E78403BE501160E18F280950DDF27563C604BA97BC1C91F30A0C123563CB27B97CBCB1F404BFC17635C99090F205BFF245CDF37C78A21BC3482833F405BF24610EC2F39588029CB84E98E59F1F8D2C201171E70D00292E7
310
01030CA03518602E19C4055C29C0D568AC17008CFB4638F40206CAF7F100E0C003BC0588834CF09CB20574A32110598E05CE7D37D87B8570D92B1C190DA6CD03FAB8C09257387EC98007180C30F8BFDB2394320FB07C3E70F864E513EC63E3AE4DAFF00A233BAF70890BE41E19CA3836686D60C87FF3E20191B8C02626C805
310
038E798581C13CC135A3418C8C0619F1803CFD011E04A6BE9F751EA1E213E4C1039E7B8571C62BCC8407E41C177018B02B32C4C11FF047B1C173CA1E2158E9158EF20022C120347680097A3E9C725CE0C85820650BF071812373843858001C98250622690C3893F30AEF9F27489005082EC10183B8C0C1B9C21CE202595AC0
310
DFAC1720363EC14DB1C1DE2748B9AF1922066B8797092FEBF901B076AE705BE60AF39C2324FC0CA11D162080D73C415AE3152666F3048B4FD0FCEF91E17074AE30719E2B3CF20B7A7FE0203A849E01B18A0B18BF885D12EF5791FBFD23AC24BFB8DEADB1E7B36E70BA8F108D7610C96E1F211AEC1691E13E42331690CB3E42
310
1E03F4970CF7117218406E3791B29F60D94F707E3F4151F6132CFB0926AA80DC77954DE36F16051405140514107C9502F6BCF510F272835BA5FAC17F8057251B6952260AA8AFD515AEF2FD222FEFF5FD22C555E6A50059C9B77B25AB1B3C2AA92CE15E61C20AD8FEAB105463FD5337A84E7598CF7415A00BBFEDC73208112B
310
FC82EA574975E2033165056C4F7236A5A880D3D8029EBF0515D6CD37CA9B6A0BF08D5DFA7A48FC424CB4096CFC951852C877BF28F4FF5023C64B03F871874FF8ACEE97265510DCF816CADFEEF8960AFD5062FD5B7739197583D0540D5CAB77D5023ED5F71FD50FFE640582C51F5046836C1490CC6F8DFD073EE7A1D021AD6C
310
D30000000049454E44AE42608203630FFAC31E0FE893A1DE00AC1AE04FE4D6A54B972E7F23FF013028631405C14A750000000049454E44AE426082
  0
ENDSEC
  0
EOF
